オリオンをなぞる
UNISON SQUARE GARDEN

ADVANCED

Level: 7
BPM: 182
Notes: 371

全程BPM在182附近飄忽不定
1
口口口口 |----|
口口口口 |----|
口口口口 |----|
口①①口 |--①-|
2
口④口口 |--①-|
③口口⑤ |②-③-|
口口口口 |--④-|
①口口② |--⑤-|
3
④口口③ |--①-|
口口②口 |②-③-|
口①口④ |----|
口口口口 |--④-|
4
口口口口 |----|
②口口① |--①-|
③口口③ |--②-|
①口口② |--③-|
5
口口口口 |----|
口口口口 |----|
口口口口 |----|
口口口口 |----|
6
口口⑤口 |①---|
⑥④口口 |②-③-|
③口口口 |④-⑤-|
①⑦②① |⑥-⑦-|
7
口口口⑤ |①-②-|
口口④② |--③-|
口口①口 |--④-|
③口口口 |⑤---|
8
①口口⑧ |①-②-|
③口口② |③-④-|
⑤口口④ |⑤-⑥-|
⑦口口⑥ |⑦-⑧-|
9
口口口口 |----|
口口口口 |----|
口口口口 |----|
口口口口 |----|
10
①口口口 |----|
③口口② |①-②-|
口⑤口④ |③-④-|
口口口口 |⑤---|
11
口口口口 |①---|
口口⑥⑤ |②-③-|
③口④口 |④---|
①口②口 |⑤-⑥-|
12
口口口口 |----|
口⑥口口 |①-②-|
①④⑤口 |③-④-|
②③口口 |⑤-⑥-|
13
①口口① |①---|
②⑥口② |②---|
③口⑤③ |③-④-|
口④口口 |⑤-⑥-|
14
①口口① |①---|
口口口口 |----|
口口口口 |----|
口口②口 |--②-|
15
口④①口 |--①-|
口⑥口口 |②---|
口⑤②口 |③-④-|
口③口口 |⑤-⑥-|
16
口口口口 |----|
口口口口 |----|
口口口口 |----|
口①①口 |--①-|
17
口①①口 |----|
②③口口 |①---|
口口⑤④ |②-③-|
口口口口 |④-⑤-|
18
①口口口 |----|
③口口② |①-②-|
口⑤口④ |③-④-|
口口口⑥ |⑤-⑥-|
19
口口口口 |①-②-|
口口⑦⑥ |③-④-|
④口⑤口 |⑤---|
①②③口 |⑥-⑦-|
20
口口口口 |----|
口口⑤口 |①-②-|
①④口口 |③-④-|
②③口口 |⑤---|
21
①口⑦① |①---|
②⑥口② |②-③-|
③口⑤③ |④-⑤-|
口④口口 |⑥-⑦-|
22
①口口① |①---|
口口口口 |----|
口口口口 |----|
口口②口 |--②-|
23
口④①口 |--①-|
口⑥口口 |②---|
口⑤②口 |③-④-|
口③口口 |⑤-⑥-|
24
口口口口 |----|
口口口口 |----|
口口口口 |----|
口口①口 |--①-|
25
口④①口 |--①-|
口⑥口口 |②-③-|
口⑤②口 |④-⑤-|
口③口口 |⑥---|
26
①④①④ |①---|
口口口口 |--②-|
口口口口 |--③-|
③②③② |--④-|
27
①口①口 |--①-|
口②口② |--②-|
③口③口 |③---|
口口口口 |----|
28
④口口口 |①---|
口口口口 |--②-|
口③口② |③---|
①口①口 |--④-|
29
口口②口 |①-②-|
口①口③ |③---|
口口口口
口口口口

口口口口
口⑤口口
口口④口 |④---|
口口口口 |--⑤-|
30
口口口④ |①---|
口口口口 |--②-|
口口口口 |③---|
①③①② |--④-|
31
口②口口 |①-②-|
③口①口 |③---|
口④口口 |④---|
⑥口口⑤ |⑤-⑥-|
32
③口口口 |----|
口口口口 |--①-|
口口口口 |②---|
口①②口 |--③-|
33
口口②口 |①-②-|
口①口③ |③---|
口口④④ |④---|
⑤⑤口口 |⑤---|
34
口口④③ |----|
口口口口 |①---|
口口②② |②---|
④口①① |③-④-|
35
③⑦口口 |①-②-|
②⑥口口 |③-④-|
①⑤口口 |⑤-⑥-|
口④口口 |⑦---|
36
口口④③ |----|
口口口口 |①---|
口口②② |②---|
④口①① |③-④-|
37
②⑥⑦口 |--①-|
①⑤口口 |②-③-|
口④口口 |④-⑤-|
口③口口 |⑥-⑦-|
38
口口④③ |----|
口口口口 |①---|
口口②② |②---|
口口①① |③-④-|
39
⑥⑥⑥⑥ |--①-|
③口⑤口 |②-③-|
②口口口 |④--⑤|
①口④口 |--⑥-|
40
口口口口 |----|
口口口口 |----|
口口口口 |----|
①口口① |--①-|
41
①口口① |----|
口口口口 |----|
口口口口 |----|
口口口口 |--①-|
42
⑤口口⑤ |----|
口口口④ |①-②-|
口口③① |③-④-|
①②口口 |--⑤-|
43
口口口口 |----|
口口④③ |①-②-|
⑤口⑤① |--③-|
①②口口 |④-⑤-|
44
口口口口 |----|
①口口口 |①-②-|
口②口② |--③-|
③④③④ |--④-|
45
口③②① |----|
口④口口 |--①-|
口口⑤口 |②-③-|
口口口口 |④-⑤-|
46
口口口口 |----|
口⑤口口 |--①-|
口口④口 |②-③-|
①②③口 |④-⑤-|
47
口口①口 |----|
口口口② |----|
口口③口 |--①-|
口口口口 |②-③-|
48
①口口② |①---|
口口口口 |②---|
①口口②
口口口口

⑤口口口
③口口④
口口口口 |③---|
③口口④ |④-⑤-|
49
口口口③ |--①-|
口口口口 |②---|
②口口① |③---|
口口口口 |----|
50
②口②口 |①---|
口口口口 |②-③-|
口口口①
①③口口

口口口口
口口口⑤
口口④⑥ |④-⑤-|
⑥口口口 |--⑥-|
51
①口①口 |----|
口口④③ |①-②-|
⑤口⑤口 |--③-|
口②口口 |④-⑤-|
52
③④③④ |----|
①口口口 |①-②-|
口②口② |--③-|
口口口口 |--④-|
53
口口口口 |----|
口口口口 |--①-|
口⑤④口 |②-③-|
①②③口 |④-⑤-|
54
口口口④ |①---|
②口①口 |--②-|
口口口③ |③---|
口口口口 |--④-|
55
口②①口 |①-②-|
口③④口 |③-④-|
⑥⑤口口 |⑤---|
口口⑥口 |--⑥-|
56
口口口口 |①-②-|
④③口④ |③-④-|
口口②①
口口口口

口口口口
口口口口
⑥口口⑥ |--⑤-|
⑤口口⑤ |--⑥-|
57
口口口口 |----|
口口口口 |----|
口口口口 |----|
②口①② |①-②-|
58
口口口口 |----|
口口口口 |----|
口①①口 |--①-|
口口口口 |----|
59
⑤⑥③② |①-②-|
口口口口 |③-④-|
口口口口 |--⑤-|
①⑦口④ |⑥-⑦-|
60
⑤口③口 |--①-|
口④②① |②-③-|
口口口口 |--④-|
口口口口 |--⑤-|
61
口口口口 |----|
④口口口 |----|
口口口口 |①-②-|
②口①③ |③-④-|
62
口①口⑤ |--①-|
口口④② |--②-|
口③口口 |--③-|
口口口口 |④-⑤-|
63
①口口口 |----|
口口口② |--①-|
口口口① |----|
②口口口 |--②-|
64
口口口口 |--①-|
①口口口 |--②-|
②口口② |----|
口口口① |----|
65
口口口口 |----|
口口口口 |----|
④口口口 |①-②-|
②口③① |③-④-|
66
③口②口 |①-②-|
⑦①口⑥ |③-④-|
口口⑤口 |⑤-⑥-|
口④口⑧ |⑦-⑧-|
67
口口口口 |--①-|
口③③口 |----|
②口口② |②---|
①③③口 |--③-|
68
②口口② |--①-|
①口口① |--②-|
②口口② |----|
口口口口 |----|


不確定度: 0

タグ:

+ タグ編集
  • タグ:

このサイトはreCAPTCHAによって保護されており、Googleの プライバシーポリシー利用規約 が適用されます。

最終更新:2013年04月07日 23:18