でんでんぱっしょん
でんぱ組.inc

EXTREME

Level: 9
BPM: 157-186
Notes: 639

BPM: 157
1
口口口口 |----|
口口口口 |----|
口口口口 |----|
口口口口 |----|
2
口口口口 |①-②-|
①②③口 |③-④-|
口⑥⑤④ |⑤-⑥-|
⑦⑧口口 |⑦-⑧-|
3
口④③② |①-②-|
⑤⑥口口 |③-④-|
口口⑧⑦ |⑤-⑥-|
口口①口 |⑦-⑧-|
4
①②③口 |①-②-|
口⑥⑤④ |③-④-|
⑦⑧口口 |⑤-⑥-|
口口口口 |⑦-⑧-|
5
⑦⑧口口 |①-②-|
⑥⑤④③ |③-④-|
口口①② |⑤-⑥-|
口口口口 |⑦-⑧-|
6
口口口口 |①-②-|
口④③口 |③-④-|
⑧②①⑦ |⑤-⑥-|
⑥口口⑤ |⑦-⑧-|
7
口②①口 |①-②-|
④⑧⑦③ |③-④-|
口⑥⑤口 |⑤-⑥-|
口口口口 |⑦-⑧-|
8
口口口① |①②③④|
口口口② |⑤⑥⑦⑧|
⑧口口③
⑦⑥⑤④

⑩⑪⑫⑬
⑨口口⑭
口口口⑮ |⑨⑩⑪⑫|
口口口口 |⑬⑭⑮-|

BPM: 186
9
口口口口 |①---|
口①①口 |--②-|
口①①口
口②②口

口口口口
④口口④
口⑤⑤口 |--③-|
③口口③ |④-⑤-|
10
③②①③ |①---|
⑤口口⑤ |②---|
②口口① |③---|
口④④口 |④-⑤-|
11
③②①③ |--①-|
口口口口 |②---|
②口口① |③---|
口④④口 |④---|
12
③②①③ |①---|
口⑤⑤口 |②---|
②口口① |③---|
④口口④ |④-⑤-|
13
③口口③ |--①-|
②口口① |②---|
口口口口 |③---|
④②①④ |④---|
14
③②①③ |①---|
⑤口口⑤ |②---|
②口口① |③---|
口④④口 |④-⑤-|
15
③②①③ |--①-|
口口口口 |②---|
②④④① |③---|
口口口口 |④---|
16
口④②口 |①---|
④口口② |②---|
口口口口 |③---|
①口口③ |④---|
17
⑪口口⑤ |①②③④|
口⑥⑥口 |⑤-⑥-|
⑩⑨③④ |⑦⑧⑨⑩|
①②⑧⑦ |⑪---|
18
口①①口 |①---|
①口口① |----|
口口口口 |----|
口口口口 |----|
19
①①①① |①---|
口口口口 |----|
口口口口 |----|
口口口口 |----|
20
①口口口 |①---|
①②口口 |----|
口口③口 |②--③|
口口口④ |--④-|
21
口③口口 |①--②|
①口口② |--③-|
口口④口 |④---|
口⑤口口 |--⑤-|
22
②口⑥口 |①-②-|
口④①口 |--③-|
口⑦口⑤ |④-⑤-|
③口口口 |⑥-⑦-|
23
①②⑤④ |①-②-|
口口口口 |--③-|
③⑥③⑥ |④-⑤-|
④⑤②① |--⑥-|
24
①口口口 |①--②|
口口口② |--③-|
口口口口
口口③口

⑦口口⑥
口口⑤口
④口⑤口 |④-⑤-|
口口口⑥ |⑥-⑦-|
25
口口口口 |①-②-|
口口口① |③-④-|
④口口③
口②口口

⑦口口口
口⑥⑤⑧
口⑥口口 |⑤-⑥-|
⑦口口口 |⑦-⑧-|
26
口口②口 |①-②-|
①口口⑦ |--③-|
⑥口口③ |④-⑤-|
口⑤④口 |⑥-⑦-|
27
①口口② |--①-|
口①②口 |----|
口②①口 |②---|
②③③① |③---|
28
口口①⑥ |①--②|
②口⑦③ |--③-|
口④口口 |④-⑤-|
口⑤⑥⑤ |⑥-⑦-|
29
⑥①口口 |①--②|
③口⑦② |--③-|
口口④口 |④-⑤-|
⑤⑥⑤口 |⑥-⑦-|
30
口②口口 |①---|
②③口口 |②-③-|
①①口口
口口口②

口口⑤口
口口口⑤
口⑦④④ |④---|
⑤口⑥口 |⑤-⑥⑦|
31
②②口口 |①--②|
口口①口 |--③-|
④口③口 |④---|
口③口④ |----|
32
④口口① |①-②-|
口②⑦口 |③-④-|
口⑥③口 |--⑤-|
口口⑤口 |⑥-⑦-|
33
口①②口 |①-②-|
④口⑦③ |--③-|
口口⑥口 |④-⑤-|
口口⑤口 |⑥-⑦-|
34
①②③④ |①-②-|
⑤⑥⑦⑧ |③-④-|
口口口口 |⑤-⑥-|
口口口口 |⑦-⑧-|
35
口口口口 |①---|
④口口④ |②---|
③①①③ |③---|
②口口② |④---|
36
口①①口 |①---|
口②②口 |----|
口③③口 |②---|
口口口口 |--③-|
37
口口口口 |--①-|
⑥口口③ |②-③-|
②口口⑤ |--④-|
④口口① |⑤-⑥-|
38
口③②① |①②③-|
口⑤④口 |④-⑤-|
口⑨⑧口 |⑥-⑦-|
口⑦⑥口 |⑧-⑨-|
39
②口口② |--①-|
④口口④ |--②-|
口⑤⑤口 |--③-|
①③③① |④-⑤-|
40
口①①口 |①---|
口②②口 |----|
口③③口 |②---|
口口口口 |--③-|
41
口口口口 |--①-|
③口口⑥ |②-③-|
⑤口口② |--④-|
①口口④ |⑤-⑥-|
42
口③⑥口 |--①-|
口口口口 |②-③-|
口⑤②口 |--④-|
口①④口 |⑤-⑥-|
43
口口口口 |--①-|
③③⑥⑥ |②-③-|
⑤⑤②② |--④-|
①①④④ |⑤-⑥-|
44
①①④④ |--①-|
口口口口 |②-③-|
⑤⑤②② |--④-|
③③⑥⑥ |⑤-⑥-|
45
①①口口 |①-②③|
口④③② |④-⑤-|
口口⑤⑤
口口口口

口⑦口口
口口口口
口口口口 |⑥---|
⑥⑥⑦口 |--⑦-|
46
①口口① |--①-|
②⑤⑤② |②-③-|
③口口③ |④---|
④口口④ |⑤---|
47
①③③① |①-②-|
口口口口 |③-④-|
口②②口
④口口④

⑧口口⑧
⑤⑦⑦⑤
口口口口 |⑤-⑥-|
口⑥⑥口 |⑦-⑧-|
48
⑤⑥口口 |--①②|
④口口④ |③---|
①②③口 |④---|
口口⑥⑤ |⑤-⑥-|
49
口口①② |①-②-|
③③③③ |--③-|
口口口口
②①口口

口口口口
口口口口
⑤④④⑤ |--④-|
口⑥⑥口 |⑤-⑥-|
50
②①①④ |①-②-|
口口口口 |③---|
口口⑤⑦ |④-⑤-|
⑥口口③ |⑥-⑦-|
51
①口口口 |①-②-|
口②口口 |③-④-|
③口口口
口④口口

⑦⑥口口
⑥口口口
口口⑤口 |⑤-⑥-|
口口口口 |--⑦-|
52
口⑦⑥① |①-②-|
⑦口②⑥ |③-④-|
口⑤⑧③ |⑤-⑥-|
口口④口 |⑦-⑧-|
53
③⑦⑤① |①-②-|
口口口口 |③-④-|
口口口口 |⑤-⑥-|
④⑧⑥② |⑦-⑧-|
54
口口④④ |①-②-|
口①①口 |③-④-|
口口口③
口口口②

口口口口
口口⑥口
⑤⑤口口 |--⑤-|
口⑥口口 |--⑥-|
55
⑤②口口 |①-②③|
⑥③口口 |④-⑤⑥|
口口口口
口口④①

口口⑧⑦
口口口⑪
口口口口 |⑦⑧⑨⑩|
⑨⑩口⑫ |⑪-⑫-|
56
⑧⑨口口 |①②③④|
⑤⑥⑦口 |⑤⑥⑦-|
④③②① |----|
口口⑨⑧ |⑧-⑨-|
57
口口①② |①-②-|
口口⑤③ |--③-|
④⑥口口 |--④-|
②①口口 |⑤-⑥-|
58
②⑦口④ |①-②-|
口口口⑥ |③---|
口口①① |④-⑤-|
⑤口口③ |⑥-⑦-|
59
④口口④ |①---|
口①①口 |②---|
口②②口 |③---|
口③③口 |④---|
60
口①①口 |①--②|
②口⑦② |--③-|
③⑥口③ |④-⑤-|
④口⑤④ |⑥-⑦-|
61
口口①⑦ |--①-|
⑥②口口 |②-③-|
口口③口 |④-⑤-|
口④⑤口 |⑥-⑦-|
62
口⑦⑦⑥ |--①-|
⑤③②口 |②-③-|
①⑤④⑥ |④-⑤-|
①③④② |⑥-⑦-|
63
②⑦口⑤ |--①-|
⑤④①③ |②-③-|
③口⑦⑥ |④-⑤-|
①⑥④② |⑥-⑦-|
64
⑥口①口 |--①②|
⑩④⑦⑤ |③④⑤⑥|
②口⑪⑨ |⑦⑧⑨⑩|
⑧口口③ |⑪---|
65
②③③① |①---|
口⑤⑤口 |②---|
口口口口 |③---|
④②①④ |④-⑤-|
66
②③③① |--①-|
口口口口 |②---|
口口口口 |③---|
④②①④ |④---|
67
②口口① |①---|
③⑤⑤③ |②---|
④口口④ |③---|
口②①口 |④-⑤-|
68
口②①口 |--①-|
③口口③ |②---|
口④④口 |③---|
②口口① |④---|
69
②③③① |①---|
口⑤⑤口 |②---|
口口口口 |③---|
④②①④ |④-⑤-|
70
②③③① |--①-|
口口口口 |②---|
口口口口 |③---|
④②①④ |④---|
71
③口口① |①---|
口④②口 |②---|
①口口③ |③---|
口②④口 |④---|
72
口①①口 |①---|
口口口口 |----|
口口口口 |②---|
②口口② |----|
73
①①①① |①---|
口口口口 |----|
口口口口 |----|
口口口口 |----|

不確定度: 0

最終更新:2014年08月01日 22:34