ラキラキ
Mutsuhiko Izumi & S-C-U

ADVANCED

Level: 9
BPM: 165
Notes: 615

1
口口口口 |----|
口口口口 |----|
口口口口 |----|
口口口口 |----|
2
口口口口 |----|
口口口口 |----|
口口口口 |----|
口口口口 |----|
3
口口口口 |----|
口口口口 |----|
口口口口 |----|
口口口口 |----|
4
①口口① |①--②|
③口口③ |--③-|
②口口②
口口口口

⑤口口⑤
口口口口
口口口口 |-④--|
④口口④ |⑤---|
5
口口口口 |①--②|
②口口② |--③-|
①口口①
③口口③

④口口④
口口口口
⑤口口⑤ |-④--|
口口口口 |⑤---|
6
③口口③ |①--②|
①口口① |--③-|
口口口口
②口口②

口口口口
⑤口口⑤
④口口④ |-④--|
口口口口 |⑤---|
7
②口口② |①--②|
口口口口 |--③-|
③口口③
①口口①

口口口口
④口口④
口口口口 |-④--|
⑤口口⑤ |⑤---|
8
①口口① |①--②|
③口口③ |--③-|
②口口②
口口口口

⑤口口⑤
口口口口
口口口口 |-④--|
④口口④ |⑤---|
9
口口口口 |①--②|
②口口② |--③-|
①口口①
③口口③

④口口④
口口口口
⑤口口⑤ |-④--|
口口口口 |⑤---|
10
③口口③ |①--②|
①口口① |--③-|
口口口口
②口口②

口口口口
⑤口口⑤
④口口④ |-④--|
口口口口 |⑤---|
11
②口②② |①--②|
口口口口 |--③-|
③口③③
①口①①

口口口口
④口④④
口口口口 |-④--|
⑤⑤口口 |⑤---|
12
口口①① |①---|
口口口口 |----|
口口口口 |----|
口口口口 |----|
13
①口口口 |----|
①口口口 |----|
口口口口 |----|
口口口口 |①---|
14
口口口① |①---|
口口口① |----|
口口口口 |----|
口口口口 |----|
15
口口口口 |①---|
口口口口 |----|
①①②② |②---|
口口口口 |----|
16
①②③④ |①---|
口口口口 |②---|
口口口口 |③---|
口口口口 |④---|
17
口口口口 |①---|
①②③④ |②---|
口口口口 |③---|
口口口口 |④---|
18
①口口② |①-②-|
⑤口口⑥ |③-④-|
③口口④ |⑤-⑥-|
⑦口口⑧ |⑦-⑧-|
19
①②⑧⑦ |①②③④|
⑤⑥⑫⑪ |⑤⑥⑦⑧|
⑬⑭④③ |⑨⑩⑪⑫|
⑨⑩⑯⑮ |⑬⑭⑮⑯|
20
口口口口 |----|
口口口口 |----|
口口口口 |----|
口口口口 |----|
21
⑧③②① |①②③-|
④⑥口⑦ |④-⑤-|
口口⑤口 |⑥-⑦-|
口口口⑨ |⑧-⑨-|
22
口口口口 |①-②③|
④⑩⑥⑤ |④-⑤⑥|
①口③② |⑦-⑧⑨|
⑦口⑨⑧ |⑩---|
23
口③②① |①②③-|
④⑥口⑦ |④-⑤-|
口⑧⑤口 |⑥-⑦-|
口口⑨口 |⑧-⑨-|
24
口口口口 |①-②③|
④口⑥⑤ |④-⑤⑥|
①口③② |⑦-⑧⑨|
⑦口⑨⑧ |----|
25
⑧③②① |①②③-|
④⑥口⑦ |④-⑤-|
口口⑤口 |⑥-⑦-|
口口⑨口 |⑧-⑨-|
26
口口口口 |①-②③|
④⑩⑤⑥ |④-⑤⑥|
①口③② |⑦-⑧⑨|
⑦⑪⑨⑧ |⑩-⑪-|
27
⑧③②① |①②③-|
④⑥口⑦ |④-⑤-|
口口⑤口 |⑥-⑦-|
口口⑨口 |⑧-⑨-|
28
⑧口口口 |①-②③|
④口⑥⑤ |④-⑤⑥|
①口③② |⑦-⑧-|
⑦口⑨⑨ |⑨---|
29
⑧③②① |①②③-|
④⑥口⑦ |④-⑤-|
口口⑤口 |⑥-⑦-|
口口⑨口 |⑧-⑨-|
30
口口口口 |①-②③|
④⑩⑥⑤ |④-⑤⑥|
①口③② |⑦-⑧⑨|
⑦口⑨⑧ |⑩---|
31
⑧③②① |①②③-|
④⑥口⑦ |④-⑤-|
口口⑤口 |⑥-⑦-|
口口⑨口 |⑧-⑨-|
32
口口口口 |①-②③|
④口⑥⑤ |④-⑤⑥|
①口③② |⑦-⑧⑨|
⑦口⑨⑧ |----|
33
⑧③②① |①②③-|
④⑥口⑦ |④-⑤-|
口口⑤口 |⑥-⑦-|
口口⑨口 |⑧-⑨-|
34
口口口口 |①-②③|
④口⑤⑥ |④-⑤⑥|
①口③②
口口口口

⑩口口口
口⑩口口
⑪口口口 |⑦-⑧⑨|
⑦⑪⑨⑧ |⑩-⑪-|
35
⑧③②① |①②③-|
④口口⑥ |④-⑤-|
口⑦⑤口 |⑥-⑦-|
④⑨⑧⑥ |⑧-⑨-|
36
⑧口⑧口 |①-②③|
④口⑥⑤ |④-⑤⑥|
①口③② |⑦-⑧-|
⑦⑨⑦⑨ |⑨---|
37
口⑦口口 |①-②-|
①⑧③口 |③-④-|
②⑨④口 |⑤-⑥-|
⑤⑩口⑥ |⑦⑧⑨⑩|
38
口⑦口口 |①-②-|
①⑧②口 |③-④-|
③⑨④口 |⑤-⑥-|
⑤⑩口⑥ |⑦⑧⑨⑩|
39
①口③② |①-②③|
④口⑥⑤ |④-⑤⑥|
⑦口⑨⑧ |⑦-⑧⑨|
⑩口⑫⑪ |⑩-⑪⑫|
40
①口③② |①-②③|
④口⑥⑤ |④-⑤⑥|
⑦口⑨⑧ |⑦-⑧⑨|
口⑪口⑩ |⑩-⑪-|
41
口⑦口口 |①-②-|
①⑧口② |③-④-|
③⑨口④ |⑤-⑥-|
⑤⑩口⑥ |⑦⑧⑨⑩|
42
口⑦口口 |①-②-|
③⑧④口 |③-④-|
①⑨②口 |⑤-⑥-|
⑤⑩口⑥ |⑦⑧⑨⑩|
43
①口③② |①-②③|
④口⑥⑤ |④-⑤⑥|
⑦口⑨⑧ |⑦-⑧⑨|
⑩口⑫⑪ |⑩-⑪⑫|
44
①⑤④② |①-②-|
口③③口 |③-④-|
口口口口 |⑤---|
口口口口 |----|
45
①口口① |①--②|
③口口③ |--③-|
②口口②
口口口口

⑤口口⑤
口口口口
口口口口 |-④--|
④口口④ |⑤---|
46
④口口④ |①--②|
②口口② |--③-|
①⑤口① |-④--|
③口口③ |--⑤-|
47
口②③口 |①-②-|
口⑧①口 |③-④⑤|
⑤口⑨④ |-⑥⑦-|
⑦口口⑥ |⑧-⑨-|
48
口①③口 |①-②-|
口⑧口② |③-④⑤|
⑤口⑨④ |-⑥⑦-|
⑦口口⑥ |⑧-⑨-|
49
③①⑧② |①-②③|
⑤⑥口④ |-④⑤-|
⑨口口⑩ |-⑥⑦⑧|
口口⑦口 |⑨-⑩-|
50
①口口口 |----|
②口口③ |--①-|
④口口⑤ |②-③-|
口口口口 |④-⑤-|
51
⑥口口⑦ |①-②③|
⑥③②⑦ |-④⑤-|
⑧⑤④⑨ |⑥-⑦-|
⑧①口⑨ |⑧-⑨-|
52
口①②口 |①-②-|
口③④口 |③-④-|
⑦口口⑧ |⑤-⑥-|
⑤口口⑥ |⑦-⑧-|
53
⑦口口⑥ |①-②③|
⑦③②⑥ |-④⑤-|
⑧⑤④⑨ |⑥-⑦-|
⑧①口⑨ |⑧-⑨-|
54
③口②口 |①--②|
③口②口 |--③-|
口口口口
口①口口

口口口口
口口口口
口④⑤口 |④-⑤-|
口⑥⑦口 |⑥-⑦-|
55
口③口口 |①-②-|
口①②口 |③-④⑤|
⑤口口④
口口口口

口口口口
口⑧口口
口口⑨口 |-⑥⑦-|
⑦口口⑥ |⑧-⑨-|
56
口口③口 |①-②-|
①⑧口② |③-④⑤|
⑤口⑨④ |-⑥⑦-|
⑦口口⑥ |⑧-⑨-|
57
③①口② |①-②③|
⑤⑥⑦④ |-④⑤-|
口⑧⑨口 |-⑥⑦⑧|
⑩口口口 |⑨-⑩-|
58
①口口② |①-②-|
③口口④ |③-④-|
⑤口口⑥ |⑤-⑥-|
⑦口口⑧ |⑦-⑧-|
59
口口口口 |①-②③|
口③②口 |-④⑤-|
口⑤④口
口①口口

⑥⑧口⑧
口口口口
口口口⑦ |⑥-⑦-|
口⑨口⑨ |⑧-⑨-|
60
①口口② |----|
口口口口 |----|
③口口④ |①-②-|
口口口口 |③-④-|
61
⑦①口⑥ |①-②③|
⑦⑤④⑥ |-④⑤-|
⑨③②⑧ |⑥-⑦-|
⑨口口⑧ |⑧-⑨-|
62
口口②口 |①--②|
④口②口 |--③-|
⑥口③⑤ |④-⑤-|
口①③⑦ |⑥-⑦-|
63
③⑥⑥② |①-②③|
⑤①口④ |-④⑤-|
⑨口口⑧ |⑥-⑦-|
⑪⑦⑦⑩ |⑧⑨⑩⑪|
64
③⑥⑥② |①-②③|
⑤①口④ |-④⑤-|
⑧口口⑨ |⑥-⑦-|
⑩⑦⑦⑪ |⑧⑨⑩⑪|
65
②⑥⑥③ |①-②③|
④①口⑤ |-④⑤-|
⑧口口⑨ |⑥-⑦-|
⑩⑦⑦⑪ |⑧⑨⑩⑪|
66
②口口③ |①-②③|
④①口⑤ |-④⑤-|
口口口口
口口口口

口⑥⑧口
口⑧⑥口
⑦⑨口口 |⑥-⑦-|
口⑦⑨口 |⑧-⑨-|
67
①③⑥① |①--②|
④⑥③④ |--③-|
⑤口口② |④--⑤|
②口口⑤ |--⑥-|
68
③口口④ |①---|
⑤口②⑥ |--②-|
口口口① |③-④-|
①口口口 |⑤-⑥-|
69
口③口口 |①-②-|
口①口口 |③-④-|
⑤口②⑥ |⑤-⑥-|
⑦口④⑧ |⑦-⑧-|
70
口口口口 |①---|
口①①口 |----|
口口口口 |----|
口口口口 |----|


不確定度: 0

最終更新:2013年10月01日 21:10