GAIA
猫叉L.E.D.Master+

ADVANCED

Level: 9
BPM: 180
Notes: 663

1
口口口口 |----|
口口口口 |----|
口口口口 |----|
口口口口 |----|
2
口口口口 |----|
口口口口 |----|
口①口口 |----|
口口口口 |--①-|
3
①口口① |①---|
②口口② |②---|
口口口口
口口口口

⑤口口⑤
口口口口
口口口口 |③-④-|
口③④口 |--⑤-|
4
口口口口 |--①-|
①口口① |--②-|
口②③口 |③---|
口④④口 |④---|
5
①口口① |①---|
②⑤⑤② |②---|
口③④口 |③-④-|
口口口口 |--⑤-|
6
口②②口 |--①-|
口口口口 |--②-|
①③④口 |③-④-|
口⑤⑥口 |⑤-⑥-|
7
①口口① |①---|
②口口② |②---|
口口口口
口口口口

⑤口口⑤
口口口口
口③④口 |③-④-|
口口口口 |--⑤-|
8
口口口口 |--①-|
①口口① |--②-|
口②③口 |③---|
口④④口 |④---|
9
①口口① |①---|
②口口② |②---|
口口口口
口口口口

⑥口口⑥
口口口口
口③④口 |③-④-|
口⑤口口 |⑤-⑥-|
10
口口口口 |--①-|
①⑤⑥① |--②-|
②③④② |③-④-|
口口口口 |⑤-⑥-|
11
①口口① |①---|
口口口口 |②---|
②口口②
口口口口

⑥口口⑥
口口口口
口③④口 |③-④-|
口⑤口口 |⑤-⑥-|
12
口口口口 |--①-|
口口口口 |--②-|
①②③① |③---|
口④④口 |④---|
13
①口口① |①---|
口口口口 |②---|
②③④② |③-④-|
口⑤⑥口 |⑤-⑥-|
14
口⑦⑧口 |①-②-|
口⑤⑥口 |③-④-|
③口口④ |⑤-⑥-|
①口口② |⑦-⑧-|
15
①口口① |①---|
口口口口 |②---|
口口口口
②口口②

⑥口口⑥
口口口口
口③④口 |③-④-|
口⑤口口 |⑤-⑥-|
16
口口口口 |--①-|
口口口口 |--②-|
口②③口 |③---|
①④④① |④---|
17
①口口① |①---|
口口口口 |②---|
口③④口 |③-④-|
②⑤⑥② |⑤-⑥-|
18
口⑦口口 |①-②-|
③⑤⑥④ |③-④-|
①口口② |⑤-⑥-|
口口口口 |⑦---|
19
①口口② |①-②-|
③口口④ |③-④-|
⑤口口⑥ |⑤-⑥-|
⑦口口⑧ |⑦-⑧-|
20
①口②口 |①-②-|
③口④口 |③-④-|
⑤口⑥口 |⑤-⑥-|
⑦口⑧口 |⑦-⑧-|
21
①②口口 |①-②-|
③口④口 |③-④-|
⑤口⑥口 |⑤-⑥-|
⑦口口⑧ |⑦-⑧-|
22
①口口② |①-②-|
③口④口 |③-④-|
⑤口⑥口 |⑤-⑥-|
⑦⑧口口 |⑦-⑧-|
23
①口口② |①---|
②③②口 |②-③-|
④⑤口口 |④-⑤-|
⑥口⑦口 |⑥-⑦-|
24
①口②口 |①-②-|
③口口④ |③-④-|
⑤口口⑥ |⑤-⑥-|
⑦口⑧口 |⑦-⑧-|
25
①②口口 |①-②-|
③口口④ |③-④-|
⑤⑥口口 |⑤-⑥-|
⑦口口⑧ |⑦-⑧-|
26
①口口② |①-②-|
③④口口 |③-④-|
⑤⑦口⑥ |⑤-⑥-|
口口口口 |⑦---|
27
②④⑥⑧ |①-②-|
口口口口 |③-④-|
口口口口 |⑤-⑥-|
①③⑤⑦ |⑦-⑧-|
28
口口口口 |①-②-|
②④⑥⑧ |③-④-|
口口口口 |⑤-⑥-|
①③⑤⑦ |⑦-⑧-|
29
口口口⑧ |①-②-|
口④⑥口 |③-④-|
②口口口 |⑤-⑥-|
①③⑤⑦ |⑦-⑧-|
30
②口口口 |①-②-|
口④⑥口 |③-④-|
口口口⑧ |⑤-⑥-|
①③⑤⑦ |⑦-⑧-|
31
口口口口 |①-②-|
②口口⑧ |③-④-|
口④⑥口 |⑤-⑥-|
①③⑤⑦ |⑦-⑧-|
32
口④⑥口 |①-②-|
②口口⑧ |③-④-|
口口口口 |⑤-⑥-|
①③⑤⑦ |⑦-⑧-|
33
口④口⑧ |①-②-|
口口口口 |③-④-|
②口⑥口 |⑤-⑥-|
①③⑤⑦ |⑦-⑧-|
34
②口⑥口 |①-②-|
口口口口 |③-④-|
口④⑦口 |⑤-⑥-|
①③⑤口 |⑦---|
35
⑧口口⑦ |①-②-|
⑥口口⑤ |③-④-|
④口口③ |⑤-⑥-|
②口口① |⑦-⑧-|
36
口口口口 |①-②-|
⑧⑦⑥⑤ |③-④-|
口④口③ |⑤-⑥-|
口②口① |⑦-⑧-|
37
⑧口口⑦ |①-②-|
口⑥口⑤ |③-④-|
口④口③ |⑤-⑥-|
口口②① |⑦-⑧-|
38
口口口口 |①-②-|
⑥⑥⑤⑤ |③-④-|
口④口③ |⑤---|
②口口① |⑥---|
39
口⑧口⑦ |①-②-|
口口⑥⑤ |③-④-|
口口④③ |⑤-⑥-|
口②口① |⑦-⑧-|
40
口口口口 |①-②-|
⑧⑦⑥⑤ |③-④-|
④口口③ |⑤-⑥-⑦-|
口②口① |⑧---|
41
⑧口口⑦ |①-②-|
口口⑥⑤ |③-④-|
④口口③ |⑤-⑥-|
口口②① |⑦-⑧-|
42
口口⑧⑦ |①-②-|
⑥口口⑤ |③-④-|
口口④③ |⑤-⑥-|
②口口① |⑦-⑧-|
43
口口口口 |①---|
口①①口 |②-③-|
⑤②口④ |--④-|
③③③③ |--⑤-|
44
②④③① |①---|
口口口口 |②-③-|
口⑤口口 |--④-|
口口口口 |--⑤-|
45
口口口口 |①---|
①①①① |②-③-|
⑤口②④ |--④-|
③③③③ |--⑤-|
46
②④③① |①---|
口口口口 |②-③-|
口⑤口口 |--④-|
口口口口 |--⑤-|
47
口口口口 |①---|
①①①① |②-③-|
⑤口②④ |--④-|
③③③③ |--⑤-|
48
②④③① |①---|
口口口口 |②-③-|
口⑤口口 |--④-|
口口口口 |--⑤-|
49
口口口口 |①---|
①①①① |②-③-|
⑤口②④ |--④-|
③③③③ |--⑤-|
50
②④③① |①---|
口口口口 |②-③-|
口⑤口口 |--④-|
口口口口 |--⑤-|
51
口口口口 |①---|
①①①① |②-③-|
口口②口 |----|
③③③③ |----|
52
口口口口 |①---|
口口口① |--②-|
口口口口 |----|
②口口口 |----|
53
③③③③ |①---|
口口②口 |②-③-|
①①①① |----|
口口口口 |----|
54
口口口口 |①---|
②口口口 |--②-|
口口口口 |----|
口口③① |--③-|
55
③③③③ |①---|
口口②口 |②-③-|
①①①① |----|
口口口口 |----|
56
口口口口 |①---|
②口口① |--②-|
口口口口 |----|
①口口② |----|
57
③③③③ |①---|
口②②口 |②-③-|
①①①① |----|
口口口口 |----|
58
口口口口 |----|
口口①口 |----|
口②口口 |①---|
口口口口 |②---|
59
⑥口⑤口 |①-②-|
④口口⑤ |③-④-|
③口⑧② |⑤-⑥-|
①⑦②⑧ |⑦-⑧-|
60
口④口③ |①-②-|
⑧②③⑥ |③-④-|
⑦①口口 |⑤-⑥-|
⑤口⑥口 |⑦-⑧-|
61
②⑧①⑦ |①-②-|
口⑥④口 |③-④-|
口⑤⑦① |⑤-⑥-|
口③口④ |⑦-⑧-|
62
口口⑤口 |①-②-|
④口⑥② |③-④-|
③口⑦② |⑤-⑥-|
①口⑧口 |⑦-⑧-|
63
口⑤口④ |①-②-|
口③⑦① |③-④-|
⑧②口④ |⑤-⑥-|
⑥口⑦① |⑦-⑧-|
64
③口②⑧ |①-②-|
①⑦口⑧ |③-④-|
口⑥②⑤ |⑤-⑥-|
口④口⑤ |⑦-⑧-|
65
⑦①⑥口 |①-②-|
⑤口⑥口 |③-④-|
④口③口 |⑤-⑥-|
②⑧③口 |⑦-⑧-|
66
口⑤口④ |①-②-|
⑥③口① |③-④-|
⑦②④口 |⑤-⑥-|
口⑧口① |⑦-⑧-|
67
口口③② |①---|
口⑤④口 |②--③|
口口②③ |--④-|
口口①口 |-⑤--|
68
①②口口 |①--②|
口口口口 |--③-|
②①口口 |-④--|
③④⑤⑥ |⑤--⑥|
69
①②口口 |----|
口③④口 |①--②|
②①口口 |--③-|
口口口口 |-④--|
70
口口②① |①--②|
口口口口 |--③-|
口口①② |-④--|
⑥⑤④③ |⑤--⑥|
71
口口①② |----|
口④③口 |①--②|
口口②① |--③-|
口口口口 |-④--|
72
①②④③ |①--②|
⑥⑤口口 |--③-|
②①口口 |-④--|
口口口口 |⑤--⑥|
73
口口口口 |----|
口口口口 |①--②|
口口③④ |--③-|
①②口口 |-④--|
74
①②③④ |①--②|
①②③④ |--③-|
⑤⑥口口 |-④--|
⑤⑥口口 |⑤--⑥|
75
口口①② |----|
口④③口 |①--②|
口口②① |--③-|
口口口口 |-④--|
76
①②口口 |①--②|
口口口口 |--③-|
②①口口 |-④--|
⑥⑤④③ |⑤--⑥|
77
①②口口 |----|
口③④口 |①--②|
②①口口 |--③-|
口口口口 |-④--|
78
口口②① |①--②|
口口口口 |--③-|
口口①② |-④--|
③④⑤⑥ |⑤--⑥|
79
口口②① |----|
口④③口 |①--②|
口口①② |--③-|
口口口口 |-④--|
80
①②口口 |①--②|
⑥⑤④③ |--③-|
②①口口 |-④--|
口口口口 |⑤--⑥|
81
口口②① |----|
口④③口 |①--②|
口口①② |--③-|
口口口口 |-④--|
82
①口口② |①--②|
①⑥⑥② |--③-|
③⑤⑤④ |-④--|
③口口④ |⑤-⑥-|
83
①①①① |①---|
口口口口 |--②-|
口口口口 |----|
②②②② |----|
84
口口口口 |----|
口口口口 |----|
口口口口 |----|
口口口口 |----|
85
口口口口 |①---|
①①①① |--②-|
②②②② |----|
口口口口 |----|
86
口口口口 |----|
口口口口 |----|
口口口口 |----|
口口①口 |--①-|
87
口口口口 |①---|
②②②② |--②-|
①①①① |----|
口口口口 |----|
88
口口口口 |----|
口口口口 |----|
口口口口 |----|
口口口口 |----|
89
口②口② |①---|
①②②② |--②-|
①口②口 |----|
①①①口 |----|
90
口口口口 |----|
口口口口 |----|
口口口口 |----|
口①①口 |①---|


不確定度: 0

最終更新:2013年10月01日 21:20