Synergy For Angels
TAG×U1-ASAMi

ADVANCED

Level: 9
BPM: 160
Notes: 642

1
口口口口 |----|
口口口口 |----|
口口口口 |----|
口口口口 |----|
2
①②③口 |①--②|
口⑥⑤④ |--③-|
口口口口 |④--⑤|
口口口口 |--⑥-|
3
口口口口 |①--②|
口口口口 |--③-|
①②③口 |④--⑤|
口⑥⑤④ |--⑥-|
4
①②③口 |①--②|
口⑥⑤④ |--③-|
口口口口 |④--⑤|
口口口口 |--⑥-|
5
口口口口 |①--②|
口口口口 |--③-|
①②③口 |④---|
口④④口 |----|
6
①②③口 |①--②|
口⑥⑤④ |--③-|
口口口口 |④--⑤|
口口口口 |--⑥-|
7
口口口④ |①--②|
⑤口口口 |--③-|
①②③⑥ |④-⑤-|
⑦口口口 |⑥-⑦-|
8
口口口口 |①---|
口④口口 |----|
口口③口 |②--③|
口②口① |--④-|
9
口①①口 |①---|
口口口口 |----|
口口口口 |----|
口口口口 |----|
10
①口口① |①--②|
②⑤⑤② |--③-|
③⑤⑤③ |-④--|
④口口④ |⑤---|
11
①②③① |①-②-|
②口口③ |-③--|
⑤口口④ |④--⑤|
⑥⑤④⑥ |--⑥-|
12
⑤②①⑤ |-①--|
②⑥⑥① |②--③|
③口口④ |--④-|
口③④口 |-⑤-⑥|
13
口①②口 |--①-|
①口口② |-②--|
④口口③ |③--④|
⑤④③⑤ |--⑤-|
14
③②①③ |-①--|
②⑤⑤① |②--③|
口⑥⑥口 |--④-|
④口口④ |-⑤-⑥|
15
口①②口 |--①-|
①口口② |-②--|
④口口③ |③--④|
⑤④③⑤ |--⑤-|
16
⑤②①⑤ |-①--|
②⑥⑥① |②--③|
③口口④ |--④-|
口③④口 |-⑤-⑥|
17
口①②口 |--①-|
①口口② |-②--|
④口口③ |③--④|
⑤④③⑤ |--⑤-|
18
③⑤⑤④ |①--②|
③①①④ |--③-|
口②②口 |-④--|
口⑥⑥口 |⑤-⑥-|
19
口口口⑥ |①-②③|
⑦⑨⑨⑧ |④-⑤-|
⑤③口② |⑥⑦⑧-|
①⑨⑨④ |⑨---|
20
②④④② |①---|
口③③口 |②---|
口①①口 |③---|
口口口口 |④---|
21
③口口③ |①--②|
口⑥⑥口 |③-④-|
①②④⑤ |⑤---|
口口口口 |⑥---|
22
③⑤⑤③ |①--②|
口口口口 |③-④-|
口②口口 |----|
④口口① |⑤---|
23
①②②① |----|
口口口口 |①---|
口口口口 |----|
口口口口 |②---|
24
②④④② |①---|
口③③口 |②---|
口①①口 |③---|
口口口口 |④---|
25
③⑥⑥③ |①--②|
口口⑥口 |③-④-|
①②④⑤ |⑤---|
口口口口 |⑥---|
26
③⑦⑦③ |①--②|
⑥②口⑧ |③-④-|
口口口口 |⑤--⑥|
口④⑤① |⑦-⑧-|
27
②④④② |①---|
口①①口 |②---|
③②②③ |③---|
口④④口 |④---|
28
①口口④ |①-②-|
口口口② |③-④-|
③③口口
口口口口

口口口口
⑤口口⑧
口口口口 |⑤-⑥-|
⑦⑦口⑥ |⑦-⑧-|
29
口①口④ |①-②-|
③③口口 |③-④-|
口口口②
口口口口

⑦⑦口口
口口⑥口
⑤口口口 |⑤-⑥-|
口口⑧口 |⑦-⑧-|
30
口口口口 |①-②-|
口口④口 |③-④-|
③③口②
①口口口

口口口⑥
⑤口口口
口口口口 |⑤-⑥-|
⑦⑦口⑧ |⑦-⑧-|
31
⑦⑦⑥④ |①-②-|
③③口口 |③-④-|
①口②口 |⑤-⑥-|
口⑤口⑧ |⑦-⑧-|
32
⑤口口口 |①-②-|
⑦⑦口④ |③-④-|
③③②⑧ |⑤-⑥-|
①口⑥口 |⑦-⑧-|
33
③③②口 |①-②-|
⑤口口④ |③-④-|
口①口口 |⑤-⑥-|
⑦⑦⑥⑧ |⑦-⑧-|
34
口口口④ |①-②-|
③③②口 |③-④-|
①口口口
口口口口

口⑤口口
口口口口
⑦⑦⑥⑧ |⑤-⑥-|
口口口口 |⑦-⑧-|
35
⑦⑦②口 |①-②-|
①口⑥④ |③-④-|
口⑤口口 |⑤-⑥-|
③③口⑧ |⑦-⑧-|
36
口⑤⑤口 |①--②|
①口口④ |--③-|
口口②口 |④---|
③口口口 |⑤---|
37
①口口① |----|
口③③口 |①---|
口口口口 |②---|
口②②口 |③---|
38
③⑤⑤① |①--②|
口口口口 |--③-|
②口口口 |④---|
口口口④ |⑤---|
39
①②②① |----|
口口口口 |①---|
口口口口 |----|
口口口口 |②---|
40
⑤口口⑤ |①--②|
口口口① |--③-|
口②口口 |④---|
④口口③ |⑤---|
41
口①①口 |----|
口口口口 |①---|
口③③口 |②---|
口②②口 |③---|
42
③④④口 |①--②|
口口口① |--③-|
②口口口 |----|
口口口口 |④---|
43
①②②① |----|
口口口口 |①---|
口口口口 |----|
口口口口 |②---|
44
口口口口 |①-②-|
口口口口 |③-④-|
⑤⑥⑦⑧ |⑤-⑥-|
①②③④ |⑦-⑧-|
45
⑤⑥⑦⑧ |①-②-|
①②③④ |③-④-|
口口口口 |⑤-⑥-|
口口口口 |⑦-⑧-|
46
口口口口 |①-②-|
口口口口 |③-④-|
⑧⑦⑥⑤ |⑤-⑥-|
④③②① |⑦-⑧-|
47
⑧⑦⑥⑤ |①-②-|
④③②① |③-④-|
口口口口 |⑤-⑥-|
口口口口 |⑦-⑧-|
48
口口口口 |①-②-|
口口口口 |③-④-|
⑤⑥⑦⑧ |⑤-⑥-|
①②③④ |⑦-⑧-|
49
⑤⑥⑦⑧ |①-②-|
①②③④ |③-④-|
口口口口 |⑤-⑥-|
口口口口 |⑦-⑧-|
50
口口口口 |①-②-|
口口口口 |③-④-|
⑧⑦⑥⑤ |⑤-⑥-|
④③②① |⑦-⑧-|
51
⑧⑦⑥⑤ |①-②-|
④③②① |③-④-|
口口口口 |⑤-⑥-|
口口口口 |⑦-⑧-|
52
口口口口 |①--②|
②口口⑤ |--③-|
口口口口 |④--⑤|
①③⑥④ |--⑥-|
53
口口口④ |①--②|
口②口口 |--③-|
①口③口 |④---|
口口口口 |----|
54
②②⑤⑤ |①--②|
口口口口 |--③-|
③③⑥⑥ |④--⑤|
①①④④ |--⑥-|
55
口口口口 |①--②|
口口③③ |--③-|
②②口口
①①口口

口口④④
⑤⑤口口
口口⑥⑥ |④-⑤-|
⑦⑦口口 |⑥-⑦-|
56
④口口④ |①---|
③口口③ |----|
口②②口 |②--③|
口口①① |--④-|
57
口①①口 |①--②|
口②②口 |--③-|
口③③口 |-④--|
⑤④④⑤ |⑤---|
58
①⑤⑤① |①--②|
②⑤⑤② |--③-|
③口口③ |-④--|
④口口④ |⑤---|
59
②④④② |①---|
口③③口 |②---|
口①①口 |③---|
口口口口 |④---|
60
③口口③ |①--②|
口⑥⑥口 |③-④-|
①②④⑤ |⑤---|
口口口口 |⑥---|
61
③⑤⑤③ |①--②|
口口口口 |③-④-|
口②口口 |----|
④口口① |⑤---|
62
①②②① |----|
口口口口 |①---|
口口口口 |----|
口口口口 |②---|
63
②④④② |①---|
口③③口 |②---|
口①①口 |③---|
口口口口 |④---|
64
③⑥⑥③ |①--②|
口口⑥口 |③-④-|
①②④⑤ |⑤---|
口口口口 |⑥---|
65
③⑦⑦③ |①--②|
⑥②口⑧ |③-④-|
口口口口 |⑤--⑥|
口④⑤① |⑦-⑧-|
66
②④④② |①---|
口①①口 |②---|
③②②③ |③---|
口④④口 |④---|
67
⑥口口⑤ |①--②|
④①①口 |--③④|
口口③⑦ |⑤--⑥|
②口口② |--⑦-|
68
口口口口 |①--②|
口口口口 |--③-|
①口口口
③口口②

口口口⑥
口口口⑦
口口口⑧ |--④⑤|
口⑤④⑨ |⑥⑦⑧⑨|
69
①②③⑬ |①②③④|
④⑤⑥⑭ |⑤⑥⑦⑧|
⑦⑧⑨⑮ |⑨⑩⑪⑫|
⑩⑪⑫⑯ |⑬⑭⑮⑯|
70
①②③⑬ |①②③④|
④⑤⑥⑭ |⑤⑥⑦⑧|
⑦⑧⑨⑮ |⑨⑩⑪⑫|
⑩⑪⑫⑯ |⑬⑭⑮⑯|
71
①口②⑥ |①--②|
口⑤口口 |--③④|
⑦口④口 |⑤--⑥|
口③口口 |--⑦-|
72
⑥口口口 |①--②|
⑦口③① |--③-|
⑧②口口 |--④⑤|
⑨④⑤口 |⑥⑦⑧⑨|
73
⑬③②① |①②③④|
⑭⑥⑤④ |⑤⑥⑦⑧|
⑮⑨⑧⑦ |⑨⑩⑪⑫|
⑯⑫⑪⑩ |⑬⑭⑮⑯|
74
口③②① |①②③④|
口⑥⑤④ |⑤⑥⑦⑧|
口口⑧⑦
口口口口

⑪⑪⑪⑪
口口口口
口⑨口口 |⑨--⑩|
口⑩⑩口 |--⑪-|
75
口口口口 |①---|
①口口① |----|
口口口口 |----|
①口口① |----|


不確定度: 0

最終更新:2013年10月01日 21:26