少年は空を辿る
Power Of Nature

ADVANCED

Level: 9
BPM: 140
Notes: 894

1
口口口口 |----|
口口口口 |----|
口口口口 |----|
口口口口 |----|
2
⑩⑧⑦⑨ |①②③④|
⑫⑥⑤⑪ |⑤⑥⑦⑧|
⑭④③⑬ |⑨⑩⑪⑫|
⑯②①⑮ |⑬⑭⑮⑯|
3
⑩⑧⑦⑨ |①②③④|
⑫⑥⑤⑪ |⑤⑥⑦⑧|
⑭④③⑬ |⑨⑩⑪⑫|
⑯②①⑮ |⑬⑭⑮⑯|
4
②口口④ |-①--|
口②④口 |②---|
口口口口 |-③--|
口③①口 |④---|
5
口②④口 |-①--|
②口口④ |②---|
口口口口 |-③--|
口③①口 |④---|
6
口④口② |-①--|
④口②口 |②---|
口①①口 |-③--|
③口口③ |④---|
7
口④②口 |①②--|
③⑥⑥① |--③④|
②⑤⑤④ |---⑤|
口①③口 |⑥---|
8
⑥②④⑥ |-①②-|
①⑤⑤③ |-③④-|
④口口② |---⑤|
口③①口 |⑥---|
9
口口口口 |①-②-|
③④口口 |-③-④|
口口②②
③④①①

口口⑤口
口口口⑤
口⑦口口 |-⑤--|
口口⑥口 |⑥⑦|
10
②②③③ |①-②-|
④口①⑤ |-③-④|
④口⑦⑤ |-⑤--|
口⑥口口 |⑥⑦|
11
①①口口 |①---|
②口口口 |②---|
③口口④ |③-④-|
⑤口口⑥ |⑤-⑥-|
12
口口口口 |①-②-|
口口口口
口②口口
口①口口
13
口⑧口口 |①-②-|
④⑦⑥② |③-④-|
③口⑤① |⑤-⑥-|
口口口口 |⑦-⑧-|
14
口口口② |①-②-|
口口口① |③-④-|
口口口口
③口口④

口口口口
⑦⑦⑦⑧
⑤⑤口⑥ |⑤-⑥-|
口口口口 |⑦-⑧-|
15
①①①① |①---|
口③口④ |②---|
③口口③ |③---|
口口口② |④---|
16
④④口① |①---|
①口口④ |②---|
口①口③ |③---|
③③口② |④---|
17
口口口① |①---|
口口口④ |②---|
口口⑤③ |③---|
口口口② |④-⑤-|
18
口口④口 |①-②-|
口③口口 |③-④-|
②口口口
口①口口

口口口口
口口口⑤
口口⑥口 |⑤-⑥-|
口⑦口口 |⑦-|
19
口口口④ |①---|
③口口③ |②---|
①③口② |③---|
口口口① |④---|
20
④④口④ |①---|
口①口③ |②---|
①口口② |③---|
③③口① |④---|
21
口口口④ |①---|
口口⑤③ |②---|
口口口② |③---|
口口口① |④-⑤-|
22
③口口口 |①-②-|
口④口口 |③-④-|
⑦①⑤口 |⑤-⑥-|
②口口⑥ |⑦-|
23
②口口① |①-②-|
②③③① |-③-④|
口④④口
口口口口

口口⑧⑦
⑥口口口
口口口口 |-⑤--|
⑥⑤⑤口 |⑥-⑦⑧|
24
口①口口 |①-②-|
④口口② |-③-④|
口③③口
④口口②

⑤⑦⑦⑤
口⑧⑧口
⑥口口⑥ |--⑤-|
口口口口 |⑥-⑦⑧|
25
口口口口 |①②③④|
口口口口 |⑤-⑥⑦|
⑥⑦⑤口
③④②①

口口口口
⑩⑪⑨⑧
口口口口 |⑧⑨⑩⑪|
⑭⑮⑬⑫ |⑫⑬⑭⑮|
26
⑦⑧⑥⑤ |①②③④|
⑪⑫⑩⑨ |⑤⑥⑦⑧|
③④②① |⑨⑩⑪⑫|
口口口口
27
口口口口 |①②③④|
口口口口 |⑤-⑥⑦|
⑥⑦②①
③④口⑤

⑩⑪口口
⑭⑮⑨⑧
口口⑬⑫ |⑧⑨⑩⑪|
口口口口 |⑫⑬⑭⑮|
28
口口②① |①②③④|
⑪⑫⑥⑤ |⑤⑥⑦⑧|
③④口口 |⑨⑩⑪⑫|
⑦⑧⑩⑨
29
②⑥⑦① |①②③④|
口口⑤口 |⑤-⑥⑦|
④⑥⑦③
口口口口

⑨口口⑨
口口口口
口口口口 |--⑧-|
口⑧⑧口 |⑨-|
30
⑧口⑨口 |①②③④|
②⑥⑦① |⑤-⑥⑦|
口⑧⑤⑨ |--⑧-|
④⑥⑦③ |⑨-|
31
口⑥口口 |①②③④|
④口⑦③ |⑤-⑥⑦|
口⑥⑤口
②口⑦①

口口⑨⑧
口口口口
口口口口 |--⑧⑨|
⑩⑪口口 |⑩⑪|
32
⑨⑩⑪⑫ |①②③④|
⑦⑧⑥⑤ |⑤⑥⑦⑧|
③④②① |---⑨⑩⑪|
口⑬⑧口 |⑫-⑬-|
33
口⑦口口 |①-②-|
③⑥②① |③---|
④口⑤④ |④-⑤-|
①口口口 |⑥-⑦-|
34
口口口口 |①-②-|
口口口口 |③---|
口①口口
③口②①
35
①①①① |①---|
⑤④③② |②-③-|
⑥⑦口口 |④-⑤-|
口口口口 |⑥-⑦-|
36
口口口口 |①-②-|
口口口口 |③-④-|
⑦⑧①② |⑤-⑥-|
⑥⑤④③ |⑦-⑧-|
37
口口口口 |①-②-|
口口口口 |③-④-|
⑦⑧①② |⑤-⑥-|
⑥⑤④③ |⑦-⑧-|
38
⑭⑩⑨⑬ |①②③④|
②⑥⑤① |⑤⑥⑦⑧|
⑯⑫⑪⑮ |⑨⑩⑪⑫|
⑧④③⑦ |⑬⑭⑮⑯|
39
口口口口 |①②③-|
②⑥⑤① |④⑤⑥⑦|
口口⑦口
口④③口

⑬⑭口口
⑫口口口
⑪⑧口口 |⑧-⑨-⑩--⑪|
⑩口口⑨ |-⑫⑬⑭|
40
口口口口 |①②③④|
口④③口 |⑤⑥⑦⑧|
口⑧⑦口
⑥②①⑤

⑭口口⑬
⑩⑯⑮⑨
⑫口口⑪ |⑨⑩⑪⑫|
口口口口 |⑬⑭⑮⑯|
41
口⑥⑤口 |①②③④|
口口口口 |⑤⑥⑦⑧|
口④③口
②⑧⑦①

口口⑮⑭
口⑩⑨⑬
口口口⑫ |⑨-⑩-⑪--⑫|
口口口⑪ |-⑬⑭⑮|
42
口①口口 |----|
口②口口 |----|
口③口口 |----|
口④口口 |①②③④--|
43
⑤⑦⑧⑥ |①②③④|
③口口④ |⑤⑥⑦⑧|
口口口口
①口口②

⑭口口⑮
⑬口口口
⑫⑨⑩口 |⑨-⑩-⑪--⑫|
⑪口口口 |-⑬⑭⑮|
44
口口口口 |①②③④|
口①口② |⑤⑥⑦⑧|
口⑦口⑧
⑤③⑥④

⑨⑮⑩⑯
口⑬口⑭
⑪口⑫口 |⑨⑩⑪⑫|
口口口口 |⑬⑭⑮⑯|
45
口口口口 |①②③④|
⑤口⑥口 |⑤⑥⑦⑧|
⑦①⑧②
③口④口

⑨⑮⑩⑭
口口口⑬
口口口⑫ |⑨-⑩-⑪--⑫|
口口口⑪ |-⑬⑭⑮|
46
口口口口 |①-②-|
口口③④ |-③-④|
②②口口
①①③④

口⑤口口
⑤口口口
口口⑦口 |-⑤--|
口⑥口口 |⑥⑦|
47
口口②② |①-②-|
口①③③ |-③-④|
④④⑦口 |-⑤--|
口⑥⑤⑤ |⑥⑦|
48
①②③④ |①-②-|
⑧⑦⑥⑤ |③-④-|
口口口口 |⑤-⑥-|
口口口口 |⑦-⑧-|
49
口口口口 |①-②-|
口口口口 |③-④-|
①②③④ |⑤-⑥-|
⑧⑦⑥⑤ |⑦-⑧-|
50
⑦口⑤① |①-②-|
⑧口⑥② |③-④-|
口口⑦③ |⑤-⑥-|
口口⑧④ |⑦-⑧-|
51
口口⑤① |①-②-|
口口⑥② |③-④-|
①⑤⑦③ |⑤-⑥-|
⑤口⑧④ |⑦-⑧-|
52
⑤①口① |①-②-|
⑥②口⑦ |③-④-|
⑦③⑦① |⑤-⑥-|
⑧④口口 |⑦-⑧-|
53
⑤①⑤口 |①-②-|
⑥②①⑤ |③-④-|
⑦③口① |⑤-⑥-|
⑧④口口 |⑦-⑧-|
54
⑦①⑤口 |①-②-|
⑧②⑥口 |③-④-|
口③⑦口 |⑤-⑥-|
口④⑧口 |⑦-⑧-|
55
口口⑤① |①-②-|
口⑤⑥② |③-④-|
①口⑦③ |⑤-⑥-|
⑤口⑧④ |⑦-⑧-|
56
①口口① |①-②-|
口口口② |③-④-|
①口口③
口口口④

口口⑤口
口口⑥口
⑦口⑦口 |⑤-⑥-|
口⑦⑧口 |⑦-⑧-|
57
⑤①⑤① |①-②-|
⑥②口⑤ |③-④-|
⑦③口① |⑤-⑥-|
⑧④口口 |⑦-⑧-|
58
口⑥口⑨ |①-②-③-|
⑫⑤③⑧ |④-⑤-⑥-|
⑪④②⑦ |⑦-⑧-⑨-|
⑩口①口 |⑩-⑪-⑫-|
59
口⑥口⑨ |①-②-③-|
⑫⑤③⑧ |④-⑤-⑥-|
⑪④②⑦ |⑦-⑧-⑨-|
⑩口①口 |⑩-⑪-⑫-|
60
⑫口口⑨ |①-②-③-|
⑪⑥③⑧ |④-⑤-⑥-|
⑩⑤②⑦ |⑦-⑧-⑨-|
口④①口 |⑩-⑪-⑫-|
61
口⑥③口 |①-②-③-|
⑫⑤②⑨ |④-⑤-⑥-|
⑪④①⑧ |⑦-⑧-⑨-|
⑩口口⑦ |⑩-⑪-⑫-|
62
③②①口 |①-②-③-|
⑨⑧⑦口 |④-⑤-⑥-|
口⑥⑤④ |⑦-⑧-⑨-|
口⑫⑪⑩ |⑩-⑪-⑫-|
63
③②①口 |①-②-③-|
⑨⑧⑦口 |④-⑤-⑥-|
口⑥⑤④ |⑦-⑧-⑨-|
口⑫⑪⑩ |⑩-⑪-⑫-|
64
③②①口 |①-②-③-|
口口口口 |④-⑤-⑥-|
口⑥⑤④
口口口口

口⑫⑪⑩
⑨⑧⑦口
口口口口 |⑦-⑧-⑨-|
口口口口 |⑩-⑪-⑫-|
65
口口⑧口 |①②③④|
口⑦口⑥ |⑤⑥⑦⑧|
⑤③④②
①口口口

⑨⑪口⑩
⑬口⑫口
口⑮口⑭ |⑨⑩⑪⑫|
口口⑯口 |⑬⑭⑮⑯|
66
⑨⑪⑧⑩ |①②③④|
⑬⑦⑫⑥ |⑤⑥⑦⑧|
⑤⑮④⑭ |⑨⑩⑪⑫|
①③⑯② |⑬⑭⑮⑯|
67
⑨⑪⑧⑩ |①②③④|
⑬⑦⑫⑥ |⑤⑥⑦⑧|
⑤⑮④⑭ |⑨⑩⑪⑫|
①③⑯② |⑬⑭⑮⑯|
68
⑨⑪⑧⑩ |①②③④|
⑬⑦⑫⑥ |⑤⑥⑦⑧|
⑤⑮④⑭ |⑨⑩⑪⑫|
①③⑯② |⑬⑭⑮⑯|
69
⑨⑪⑧⑩ |①②③④|
⑮⑤⑭④ |⑤⑥⑦⑧|
⑦⑬⑥⑫ |⑨⑩⑪⑫|
①③⑯② |⑬⑭⑮⑯|
70
⑨⑪⑧⑩ |①②③④|
⑮⑤⑭④ |⑤⑥⑦⑧|
⑦⑬⑥⑫ |⑨⑩⑪⑫|
①③⑯② |⑬⑭⑮⑯|
71
口口⑧口 |①②③④|
口③口② |⑤⑥⑦⑧|
⑦口⑥口
①⑤口④

⑨⑬口⑫
⑮口⑭口
口⑪口⑩ |⑨⑩⑪⑫|
口口口⑯ |⑬⑭⑮⑯|
72
⑦口⑥口 |①②③④|
口③口② |⑤⑥⑦⑧|
⑤口④⑧
口①口口

口口口口
口⑬⑯⑫
口⑨口口 |⑨⑩⑪⑫|
⑪⑮⑩⑭ |⑬⑭⑮⑯|
73
①⑤口⑦ |①-②-|
②⑥口⑧ |③-④-|
③⑦口口 |⑤-⑥-|
④⑧口口 |⑦-⑧-|
74
①⑤口口 |①-②-|
②⑥口⑤ |③-④-|
③⑦口① |⑤-⑥-|
④⑧口口 |⑦-⑧-|
75
①口口口 |①-②-|
②口口口 |③-④-|
③口口①
④口口口

口⑤口口
口⑥口口
口⑦口⑦ |⑤-⑥-|
口⑧口口 |⑦-⑧-|
76
①⑤口口 |①-②-|
②⑥口口 |③-④-|
③⑦①口 |⑤-⑥-|
④⑧口⑤ |⑦-⑧-|
77
①⑤口⑦ |①-②-|
②⑥口⑧ |③-④-|
③⑦口口 |⑤-⑥-|
④⑧口口 |⑦-⑧-|
78
①⑤口口 |①-②-|
②⑥口⑤ |③-④-|
③⑦口① |⑤-⑥-|
④⑧口口 |⑦-⑧-|
79
①⑤口口 |①-②-|
②⑥口口 |③-④-|
③⑦口① |⑤-⑥-|
④⑧口⑦ |⑦-⑧-|
80
①⑤口口 |①-②-|
②⑥口口 |③-④-|
③⑦口口 |⑤-⑥-|
④⑧①⑤ |⑦-⑧-|

不確定度: 0

最終更新:2014年03月16日 15:33