New Gravity
Starving Trancer

EXTREME

Level: 9
BPM: 154
Notes: 555

1
口口口口 |----|
口口口口 |----|
口口口口 |----|
口口口口 |----|
2
口口口口 |①---|
①口③口 |②-③-|
⑤口口口 |--④-|
②口④口 |--⑤-|
3
口口口③ |--①-|
口口口口 |--②-|
口口①口 |--③-|
②口口口 |----|
4
口口口口 |①---|
①口③口 |②-③-|
⑤口口口 |--④-|
②口④口 |--⑤-|
5
口口③④ |--①-|
口口口口 |--②-|
口口①口 |--③-|
②口口口 |--④-|
6
口口口口 |①---|
①①③口 |②-③-|
⑥口口口 |--④-|
②口④⑤ |⑤-⑥-|
7
口⑥口⑦ |①-②-|
⑤①口口 |③-④-|
口口②③ |--⑤-|
④口口口 |⑥-⑦-|
8
口⑦口口 |①---|
口口①口 |②-③④|
③⑤口口 |⑤---|
口④⑥② |⑥-⑦-|
9
口口⑤⑥ |--①-|
口口③④ |--②-|
②口①口 |③-④-|
口口口口 |⑤-⑥-|
10
口口口口 |①---|
口口口口 |----|
口①①口 |----|
口口口口 |----|
11
口口口口 |①---|
口口口口 |----|
口口口口
口①①口

口口口口
口口口口
②②②② |②---|
③③③③ |③---|
12
①口③口 |①---|
⑤口口口 |②-③-|
口②口④ |--④-|
口口口⑤ |--⑤-|
13
口口口③ |--①-|
口②口① |--②-|
口口②③ |--③-|
①口口口 |----|
14
①口③口 |①---|
口口口⑤ |②-③-|
口②口④ |--④-|
⑤口口口 |--⑤-|
15
口①③④ |--①-|
口口②口 |--②-|
口②③④ |--③-|
口口①口 |--④-|
16
①口③口 |①---|
⑤口口口 |②-③-|
口②口④ |--④-|
口口口⑤ |--⑤-|
17
口口①口 |--①-|
口④②⑤ |--②-|
③②口口 |--③-|
口①口口 |④-⑤-|
18
⑤口口口 |①---|
口口口口 |--②③|
口口①③ |④---|
口口②④ |--⑤-|
19
口口②口 |--①-|
④④⑥⑥ |--②-|
③③⑤⑤ |③-④-|
①口口口 |⑤-⑥-|
20
口①口口 |①---|
口口口口 |②---|
口③口口 |③---|
②口④口 |④---|
21
口口③口 |①---|
口口口⑦ |②-③-|
④⑥⑤① |④-⑤-|
口②口口 |⑥-⑦-|
22
口口口口 |①---|
口口口口 |②---|
③口④口 |③---|
口①口② |④---|
23
④⑤口口 |①---|
口口③口 |②---|
③口④口 |③---|
口①口② |④-⑤-|
24
口口口口 |①---|
口口口口 |②---|
③口④口 |③---|
口①口② |④---|
25
口口口口 |①---|
③⑥④口 |②---|
口③口⑤ |③--④|
口①口② |⑤-⑥-|
26
口③①口 |①---|
口口④⑤ |②-③④|
口口口口 |⑤---|
①⑤②⑥ |⑥---|
27
口口②口 |①-②-|
①口口④ |③-④-|
口③①口
口口口口

口口口口
⑧⑧口口
口口⑦⑦ |⑤-⑥⑦|
⑤⑤口⑥ |--⑧-|
28
⑦③⑦③ |①-②-|
口口口⑤ |③-④-|
①⑥口⑧ |⑤-⑥-|
口④②口 |⑦-⑧-|
29
口③口③ |①-②-|
口口口口 |③-④-|
④口②口
①口口口

⑦口⑦口
口⑥口口
口口⑧⑧ |⑤-⑥-|
口口⑤⑤ |⑦-⑧-|
30
⑥口⑤⑧ |①-②-|
口④口② |③-④-|
口①口口 |⑤-⑥-|
③⑦③⑦ |⑦-⑧-|
31
口①口口 |①-②-|
④⑥⑧② |③-④-|
口口⑤⑤ |⑤-⑥-|
③⑦③⑦ |⑦-⑧-|
32
⑥⑥②② |①--②|
③④⑦⑧ |--③④|
口口口口 |⑤--⑥|
①⑤①⑤ |--⑦⑧|
33
⑥⑥②② |①--②|
③④⑦⑧ |--③④|
口口口口 |⑤--⑥|
①⑤①⑤ |--⑦⑧|
34
口口口口 |①--②|
③④口口 |--③④|
口口②②
①口①口

口口口口
口口⑦口
⑥⑥⑧口 |⑤--⑥|
口⑤口⑤ |--⑦⑧|
35
①②③④ |①②③④|
口口口⑤ |⑤⑥⑦⑧|
口口口⑥
口口⑧⑦

⑬⑭⑮⑯
⑫口口口
⑪口口口 |⑨⑩⑪⑫|
⑩⑨口口 |⑬⑭⑮⑯|
36
口口口口 |①---|
口①口口 |②---|
③④⑤⑥ |③④⑤⑥⑦⑧|
⑦⑧⑨② |⑨---|
37
①⑦④口 |①-②-|
口口②口 |③-④-|
③③口⑤ |--⑤-|
⑦口⑥口 |⑥-⑦-|
38
口口①③ |--①-|
口②②口 |--②-|
口口口③ |--③-|
口①口口 |----|
39
①口④口 |①-②-|
口口口口 |③-④-|
③③口口
口口②口

⑦口口口
口口口口
口口⑥⑤ |--⑤-|
口⑦口口 |⑥-⑦-|
40
口①③④ |--①-|
口②②口 |--②-|
口口③④ |--③-|
口口①口 |--④-|
41
①⑦④口 |①-②-|
口⑥口口 |③-④-|
③③口⑤ |--⑤-|
⑦口②口 |⑥-⑦-|
42
口口①口 |--①-|
②④口⑤ |--②-|
③口口② |--③-|
口①口口 |④-⑤-|
43
⑦口口口 |①---|
口口⑥口 |②-③④|
口口①③ |⑤---|
②口④⑤ |⑥-⑦-|
44
口口②口 |--①-|
④④⑥⑥ |--②-|
③③⑤⑤ |③-④-|
①口口口 |⑤-⑥-|
45
口口口口 |----|
口口口口 |----|
口口口口 |----|
口口口口 |----|
46
①口口口 |①-②-|
②③④⑤ |③-④-|
①⑥⑦⑧ |⑤-⑥-|
口口口⑤ |⑦-⑧-|
47
①口口口 |①-②-|
②③④⑤ |③-④-|
①⑥⑦⑧ |⑤-⑥-|
口口口⑤ |⑦-⑧-|
48
①②③⑦ |①②③④|
④⑤⑥⑧ |⑤⑥⑦⑧|
⑨⑩⑪⑮ |⑨⑩⑪⑫|
⑫⑬⑭⑯ |⑬⑭⑮⑯|
49
①②③⑦ |①②③④|
④⑤⑥⑧ |⑤⑥⑦⑧|
⑨⑩⑪⑮ |⑨⑩⑪⑫|
⑫⑬⑭⑯ |⑬⑭⑮⑯|
50
③口②口 |①-②③|
①①④⑤ |--④⑤|
口口口口
口口口口

口口⑨⑩
口口口口
⑥⑥口⑦ |⑥-⑦⑧|
口⑧口口 |--⑨⑩|
51
口口口口 |①-②③|
①①口口 |--④⑤|
口③④⑤
口口②口

⑥⑥⑨⑩
口⑧口⑦
口口口口 |⑥-⑦⑧|
口口口口 |--⑨⑩|
52
⑧⑧⑦⑦ |①-②-|
⑥⑥⑤⑤ |③-④-|
④④③③ |⑤-⑥-|
②②①① |⑦-⑧-|
53
口口口口 |①②③④|
⑧⑥⑤⑦ |⑤⑥⑦⑧|
口④③口
口②①口

口口口口
口口口口
⑩⑯⑮⑨ |⑨⑩⑪⑫|
⑫⑭⑬⑪ |⑬⑭⑮⑯|
54
①⑦③① |①---|
④②②⑤ |②-③-|
②口口② |④-⑤-|
⑦口⑥口 |⑥-⑦-|
55
口口②⑥ |①-②-|
⑤⑦④⑧ |③-④-|
①③④⑥ |⑤-⑥-|
口②口口 |⑦-⑧-|
56
①口④口 |①-②-|
口口口口 |③-④-|
③③口口
口口②口

⑧口口口
⑤口口口
口口⑦⑥ |⑤-⑥-|
口⑧口口 |⑦-⑧-|
57
口②⑥⑧ |①-②-|
④④⑦③ |③-④-|
口①⑥⑧ |⑤-⑥-|
口口②⑤ |⑦-⑧-|
58
①⑧④口 |①-②-|
⑤⑦口口 |③-④-|
③③口⑥ |⑤-⑥-|
⑧口②口 |⑦-⑧-|
59
口口②口 |①-②-|
④口口口 |③-④-|
①③口④
口②口口

⑥口口口
口口⑤口
⑧口⑦口 |⑤-⑥-|
口⑨口⑥ |⑦-⑧⑨|
60
口口口口 |①---|
口⑥②口 |②-③④|
口口口③ |⑤---|
①口④⑤ |⑥---|
61
①①①口 |①--②|
口口口口 |--③-|
口②②②
③③③口

口⑦⑥④
⑦⑤④⑥
⑤口口口 |④-⑤-|
口口口口 |⑥-⑦-|
62
口口口口 |①---|
口④口口 |②-③-|
口口③⑤ |--④-|
口②口① |--⑤-|
63
口⑤口口 |--①-|
口④②口 |--②-|
③口口口 |--③-|
口①口口 |④-⑤-|
64
口⑤口口 |①---|
①口口口 |--②③|
口口口② |④---|
口口③④ |--⑤-|
65
口口⑤⑥ |--①-|
口口③④ |--②-|
②口①口 |③-④-|
口口口口 |⑤-⑥-|
66
口口口口 |①---|
口口口口 |----|
口口口口 |----|
①①①① |----|


不確定度: 0

最終更新:2013年10月24日 23:07