Right on time (Ryu☆Remix)
Ryu☆

EXTREME

Level: 9
BPM: 149
Notes: 638

1
口口口口 |----|
口口口口 |----|
口口口口 |----|
口口口口 |----|
2
口⑨口⑧ |①--②|
口口⑦④ |-③④-|
⑩⑥②③ |⑤⑥⑦⑧|
⑤口口① |⑨--⑩|
3
口⑧①口 |①-②-|
②⑦口④ |③-④-|
⑥③①口 |⑤-⑥-|
④⑤口口 |⑦-⑧-|
4
口口⑧① |①-②-|
④⑦②口 |③-④-|
口③⑥① |⑤-⑥-|
口⑤④口 |⑦-⑧-|
5
口①⑧口 |①-②-|
口口②⑦ |③-④-|
口①⑥③ |⑤-⑥-|
④口④⑤ |⑦-⑧-|
6
①①口口 |①---|
①口口口 |----|
②②口口 |②---|
②②口口 |----|
7
口口口口 |①-②-|
②①①① |③-④-|
口③①口
④口④口

⑧口口口
口⑦口口
⑥口口口 |⑤-⑥-|
口⑤口口 |⑦-⑧-|
8
口口⑧① |①-②-|
口⑦②口 |③-④-|
口③⑥① |⑤-⑥-|
④⑤④口 |⑦-⑧-|
9
口①⑧口 |①-②-|
口口②⑦ |③-④-|
①口⑥③ |⑤-⑥-|
④口④⑤ |⑦-⑧-|
10
口①⑧口 |①-②-|
口⑦②口 |③-④-|
①③⑥口 |⑤-⑥-|
口⑤④⑤ |⑦-⑧-|
11
①①口口 |①---|
①③③③ |②---|
②②③口 |③---|
②②口口 |----|
12
口口口口 |----|
口口口口 |----|
①②口口 |----|
口口口口 |①-②-|
13
口口口④ |①---|
②③口① |②-③-|
⑤⑥口④ |④---|
口口口① |⑤-⑥-|
14
口口口口 |①---|
①口口口 |②-③-|
口口③口
①口②口

口④口④
⑤口④口
⑤⑥口口 |④---|
⑤口口口 |⑤-⑥-|
15
口口口口 |①---|
口②口① |②-③-|
口口③口
口②③①

口口⑦口
口口⑤⑥
口口口④ |④-⑤-|
口口口口 |⑥-⑦-|
16
①①口口 |①---|
①③③③ |②---|
②②③口 |③---|
②②⑤④ |④-⑤-|
17
口④③② |①---|
④口口口 |②-③-|
口①⑥⑤ |④---|
①口口口 |⑤-⑥-|
18
④口④⑤ |①---|
口④⑥① |②-③-|
口③口⑤ |④---|
口②口① |⑤-⑥-|
19
口①⑦口 |①---|
①②⑤⑥ |②-③-|
口②③④ |④-⑤-|
口②③口 |⑥-⑦-|
20
①①口口 |①---|
①口口口 |----|
②②口口 |②---|
②②口口 |----|
21
口口口口 |①---|
口①①① |----|
口口①口 |----|
口口口口 |----|
22
口⑥⑦口 |①-②-|
①⑧②① |③④-⑤|
口⑤⑪④ |-⑥⑦⑧|
口⑩⑨③ |-⑨⑩⑪|
23
①⑦⑥口 |①-②-|
①口⑧② |③④-⑤|
④⑪口⑤ |-⑥⑦⑧|
③⑨⑩口 |-⑨⑩⑪|
24
口口口① |①-②-|
口②口① |③④-⑤|
④口口⑤
③口口口

⑪⑦⑥口
⑨⑫⑧口
口口⑪口 |-⑥⑦⑧|
口⑩口口 |⑨⑩⑪⑫|
25
⑧口口① |①-②-|
⑥⑦④③ |③-④-|
④口⑥⑤ |⑤-⑥-|
②口口口 |⑦-⑧-|
26
⑧①口⑤ |①-②-|
⑥⑦⑥④ |③-④-|
④口口③ |⑤-⑥-|
②口③② |⑦-⑧-|
27
⑧①口口 |①-②-|
⑥口⑥⑦ |③-④-|
口口③⑤ |⑤-⑥-|
②口②④ |⑦-⑧-|
28
口②②② |①---|
口①②口 |--②-|
①①①口
①口①口

③口口口
④⑤口口
口口口口 |--③-|
口口口口 |④-⑤-|
29
⑧口口口 |①-②-|
⑥⑦③② |③-④-|
④口⑤④ |⑤-⑥-|
②口①⑥ |⑦-⑧-|
30
⑧①⑥⑤ |①-②-|
⑥⑦口④ |③-④-|
④口口③ |⑤-⑥-|
②口②口 |⑦-⑧-|
31
口①口口 |①-②-|
口口②③ |③-④-|
口⑧④⑤ |⑤-⑥-|
②口⑥⑦ |⑦-⑧-|
32
①①②② |①---|
①①②口 |--②-|
①口②②
①口②口

口⑤口口
口④口口
口③口口 |--③-|
口口口口 |④-⑤-|
33
①口③② |①-②-|
①口口口 |③-④-|
④④口口
④口口口

口口口⑥
口口⑤⑤
口口⑤口 |--⑤-|
口口口口 |--⑥-|
34
口①口⑥ |①-②-|
②口⑦⑤ |③-④-|
口③⑤⑤ |⑤---|
④口⑤⑤ |⑥-⑦-|
35
⑥口口口 |①-②-|
⑤③口④ |③-④-|
②①④口 |--⑤-|
口口口④ |⑥---|
36
口①①① |①---|
⑤②①② |--②-|
④口②口 |--③-|
③②口口 |④-⑤-|
37
⑤口④② |①-②-|
⑥口④口 |③-④-|
⑦口④① |--⑤-|
口③④口 |⑥-⑦-|
38
口口口① |①-②-|
口②口① |③-④-|
⑦④⑤③ |⑤---|
⑥口③⑤ |⑥-⑦-|
39
口口口口 |①-②-|
①④口口 |③-④-|
口口③口
口②口口

口⑥⑤口
⑧口⑦口
口口口口 |⑤-⑥-|
口口口口 |⑦-⑧-|
40
口口口口 |①---|
口口口① |----|
口口①①
口①①口

②口②口
口②口口
②③③口 |②---|
口④④口 |③-④-|
41
口口口口 |----|
口口口口 |----|
①②口口 |----|
①②口口 |①-②-|
42
②③口④ |①---|
②③④① |②-③-|
⑤口①④ |④---|
口⑥口① |⑤-⑥-|
43
口口口口 |①---|
口口③口 |②-③-|
口①①口
口口②口

口④口④
⑤口口口
⑤⑥口口 |④---|
⑤口口口 |⑤-⑥-|
44
口口口口 |①---|
口②③① |②-③-|
口口①口
口口口①

口口口⑦
口口口⑥
口口口⑤ |④-⑤-|
口口④口 |⑥-⑦-|
45
①①③口 |①---|
①③③③ |②---|
②②③⑤ |③---|
②②③④ |④-⑤-|
46
①口口② |①---|
口口口③ |②-③-|
口①口口
①口口口

口④口口
④口口口
口⑥⑤口 |④---|
口④口口 |⑤-⑥-|
47
口口口口 |①---|
口口③口 |②-③-|
口口口①
口口②①

口口④④
口口口⑤
口口⑥口 |④---|
口口口⑤ |⑤-⑥-|
48
口①口口 |①---|
①②口口 |②-③-|
口①口口
①②③口

④口口⑤
⑥口口⑦
口口口口 |④-⑤-|
口口口口 |⑥-⑦-|
49
口③③③ |①-②-|
口口③口 |--③-|
①①②②
①口②②

口口口口
口口口口
④⑤口口 |----|
④⑤口口 |④-⑤-|
50
③④⑥⑤ |①-②-|
③④⑤① |③-④-|
⑦⑧①⑤ |⑤-⑥-|
口口②① |⑦-⑧-|
51
口口口口 |①-②-|
⑥③④② |③-④-|
⑥⑦①⑤ |⑤---|
⑥口①口 |⑥-⑦-|
52
口③④口 |①-②-|
口③口① |③-④-|
口口①口
口口②①

口口口⑤
口口⑥口
口口⑦口 |⑤-⑥-|
口口口⑧ |⑦-⑧-|
53
①①③口 |①---|
①③③③ |②---|
②②③⑤ |③---|
②②③④ |④-⑤-|
54
②①口③ |①-②-|
①口口④ |③-④-|
口①口口
①口口口

口口⑤口
⑧⑤口口
⑦口⑤口 |⑤-⑥-|
口⑤⑥口 |⑦-⑧-|
55
口口③② |①-②-|
口④⑦⑥ |③-④-|
⑤口⑥① |⑤---|
口口口⑥ |⑥-⑦-|
56
①①⑥⑤ |①-②-|
①④⑧⑦ |③-④-|
口①口② |⑤-⑥-|
①①③口 |⑦-⑧-|
57
①①口口 |①---|
①口口口 |②---|
③③口④ |③---|
③③口② |④---|
58
口口①口 |①---|
口①①① |----|
口口①口 |----|
口口①口 |----|
59
⑤①口口 |①-②-|
①口口口 |③④-⑤|
④口②①
③口口口

口口⑧口
口⑦⑥口
口⑩⑨口 |-⑥⑦⑧|
口口⑪口 |-⑨⑩⑪|
60
口口口口 |①-②-|
口口⑤② |③④-⑤|
③口口④
①①口③

⑫⑩⑫⑪
⑥⑨口⑬
口⑦⑧口 |⑥⑦⑧⑨|
口口口口 |⑩⑪⑫⑬|
61
口⑦口口 |①-②③|
⑥口②口 |④⑤⑥⑦|
③口口⑤
①①口④

⑭口⑬口
口⑫口⑪
⑬⑧⑨口 |-⑧⑨⑩|
⑪⑩口口 |⑪⑫⑬⑭|
62
口口口① |①---|
口口口口 |----|
口口口口 |----|
口口口口 |----|


不確定度: 0

最終更新:2013年10月24日 23:16