夏・KOI・ムッシュ!!
ビーチサンダルズ

EXTREME

Level: 9
BPM: 140
Notes: 702

1
口口口口 |----|
口口口口 |----|
口口口口 |----|
口口口口 |----|
2
口③口④ |①--②|
①⑤②口 |--③-|
②④①③ |--④-|
①口②⑤ |-⑤--|
3
④口口口 |①---|
①③④② |②--③|
④口②口 |--④-|
口②①③ |----|
4
④口口④ |①---|
口③口③ |②---|
②口口② |③---|
①口①口 |④---|
5
口①①口 |①②③④|
⑤③③⑤ |-⑤-⑥|
口②②口
⑥④④⑥

口⑧口口
口口⑨口
⑦口口⑦ |⑦-⑧-|
口口口口 |--⑨-|
6
口④口① |①-②③|
口①口④ |-④--|
口口③口
口口②口

口口口口
⑨⑧⑨口
⑦⑤口口 |⑤-⑥⑦|
口⑥口口 |⑧-⑨-|
7
③①口② |①-②-|
口⑤⑤① |--③-|
口②③口 |--④-|
④口口④ |--⑤-|
8
①口口① |①---|
③口口③ |②-③-|
①②②①
③口口③

⑥口口⑥
口④④口
⑥口口⑥ |--④-|
口口⑤口 |⑤-⑥-|
9
口①①口 |①--②|
②③口④ |③--④|
口口口口
口口口口

口口口口
口⑩⑤口
⑨口口⑥ |⑤--⑥|
口⑧⑦口 |⑦⑧⑨⑩|
10
口口①口 |①②-③|
口口⑤② |-④⑤-|
口③口④
口口⑤口

口口⑧口
⑥⑦口口
口口口口 |-⑥⑦-|
⑨口口⑨ |⑧-⑨-|
11
②①口③ |①--②|
口③②① |--③-|
②①口③
口口口口

口④④口
⑤口口⑤
口⑥⑥口 |--④-|
口口口口 |⑤-⑥-|
12
①④③① |①--②|
⑥⑤⑥口 |--③④|
口⑦口⑤ |⑤--⑥|
②口口口 |--⑦-|
13
口口④⑧ |①-②③|
口⑤⑨③ |④⑤⑥-|
⑥口①⑧ |⑦---|
②⑦⑦② |⑧-⑨-|
14
④①口口 |①--②|
②口口① |③-④-|
④①口口
口口口③

口口⑥口
口⑤口⑧
口⑦⑥口 |⑤--⑥|
口口口口 |⑦-⑧-|
15
②口口① |①--②|
①口②口 |③-④-|
②口④①
口③口口

口口口口
⑦⑤口⑥
口⑧口口 |⑤--⑥|
⑦口口口 |⑦-⑧-|
16
③口口口 |①--②|
口⑥①④ |③-④-|
①⑦⑤② |⑤---|
口⑥①④ |⑥-⑦-|
17
口②口② |①-②-|
①口口口 |③---|
③口③①
①口口口

④⑦④口
⑥口⑥口
口⑤口⑤ |④-⑤-|
口口口口 |⑥-⑦-|
18
口口口① |①--②|
口⑦口口 |③-④-|
⑥④⑥④ |--⑤-|
口⑤③② |⑥-⑦-|
19
①口①口 |①--②|
口口③② |③-④-|
口④口④
口口口口

⑧口⑧口
口⑦口口
口口⑥口 |---⑤|
口口⑤口 |⑥-⑦⑧|
20
口口口① |①--②|
②口②③ |③--④|
④口④口
口口口口

⑧⑧⑧⑧
口口口口
口口口⑤ |⑤--⑥|
⑥口⑥⑦ |⑦-⑧-|
21
口口口口 |--①-|
口口②口 |②-③-|
③①口口
口口口口

⑤口口⑥
口④⑦口
口口口⑥ |④-⑤-|
口口口口 |⑥-⑦-|
22
④①口口 |①--②|
②口口① |③-④-|
④①口口
口口口③

口口⑥口
口⑤口⑧
口⑦⑥口 |⑤--⑥|
口口口口 |⑦-⑧-|
23
②口口① |①--②|
①口②口 |③-④-|
②口④①
口③口口

口口口⑥
⑦⑤口口
口⑧口口 |⑤--⑥|
⑦口口口 |⑦-⑧-|
24
③口口口 |①--②|
口⑥①④ |③-④-|
①⑦⑤② |⑤---|
口⑥①④ |⑥-⑦-|
25
口②口② |①-②-|
①④口口 |③--④|
③口③①
①口口口

口⑩口口
⑧口⑨⑤
口⑥口⑦ |⑤⑥⑦⑧|
口口口口 |⑨-⑩-|
26
口口口① |①--②|
口⑦口口 |③-④-|
⑥④⑥④ |--⑤-|
口⑤③② |⑥-⑦-|
27
①④①④ |①--②|
口口③② |③-④⑤|
口⑤口口
口口口口

⑩口⑩口
口⑨口口
⑥口⑧口 |⑥--⑦|
口口⑦口 |⑧-⑨⑩|
28
口口口① |①--②|
②口②③ |③--④|
④口④口
口口口口

⑧⑧⑧⑧
口口口口
口口口⑤ |⑤--⑥|
⑥口⑥⑦ |⑦-⑧-|
29
口口口口 |--①-|
①口口② |②-③-|
口口③口
口口口口

⑥⑤口口
⑤口口口
口口口口 |④---|
④口口④ |⑤-⑥-|
30
口口⑦⑧ |①-②-|
口①口⑦ |③-④⑤|
⑥口②④ |--⑥-|
口⑥⑤③ |⑦-⑧-|
31
口⑧口口 |①-②-|
⑧口①口 |③-④⑤|
④②⑦⑥ |--⑥-|
③⑤⑥⑦ |⑦-⑧-|
32
①口口口 |①-②-|
口①口口 |③-④-|
③④口口
②口口口

口口⑤口
⑨⑧⑦⑥
口口口口 |⑤--⑥|
口口口口 |⑦⑧⑨-|
33
口口③口 |①-②-|
口口口口 |③-④-|
①②口④
口口口口

口口口口
口口口口
⑤口口口 |----|
⑥⑤口口 |⑤-⑥-|
34
口⑥⑤③ |①-②-|
⑥口②④ |③-④⑤|
口①口⑦ |--⑥-|
口口⑦⑧ |⑦-⑧-|
35
③⑤⑥⑦ |①-②-|
④②⑦⑥ |③-④⑤|
⑧口①口 |--⑥-|
口⑧口口 |⑦-⑧-|
36
⑥口⑨口 |--①②|
⑦④⑧⑤ |③④⑤-|
⑧②⑦③ |⑥-⑦-|
⑨口⑥① |⑧-⑨-|
37
口②口① |①---|
口②口① |②---|
口①口② |----|
口①口② |----|
38
口口口口 |----|
口口口口 |----|
口口口口 |----|
口口口口 |----|
39
口①①口 |①②③④|
⑤③③⑤ |-⑤-⑥|
口②②口
⑥④④⑥

⑨口⑧⑨
口口口口
⑦口⑧⑦ |⑦---|
口口口口 |⑧-⑨-|
40
口①口口 |①-②-|
②③②① |③-④⑤|
④①④③
口③⑤口

⑨⑦口⑨
⑧口口⑧
口口口口 |-⑥-⑦|
⑥口口⑥ |⑧-⑨-|
41
口口口口 |①-②-|
⑥①③⑥ |③-④⑤|
②④口② |----|
⑤①③⑤ |--⑥-|
42
①口③① |①---|
口④②口 |②-③④|
①口③①
口④口口

口⑦口口
⑤口口口
⑥⑤口口 |--⑤-|
口口口口 |⑥-⑦-|
43
③口口② |①--②|
⑤③②① |--③-|
③⑥①② |④---|
④口口④ |--⑤⑥|
44
③口口口 |①---|
口口②口 |②-③-|
口口③口
②口①口

口口口⑦
口口⑧⑥
口口口⑤ |④-⑤-|
口口口④ |⑥-⑦⑧|
45
口②口口 |①---|
口口口③ |②-③-|
口①口②
口③口口

口口口⑦
⑥口口口
⑤口口⑦ |④-⑤-|
④口口口 |⑥-⑦-|
46
④②⑥口 |①--②|
⑤③①② |--③-|
④②⑥口 |④--⑤|
口口口口 |--⑥-|
47
口④口① |①-②-|
口①口口 |③-④-|
口③口①
口②口口

⑦口⑥⑦
⑤口⑤口
口口⑥口 |⑤---|
口口口口 |⑥-⑦-|
48
口①口口 |①-②-|
②③②① |③-④⑤|
④①④③
口③⑤口

⑨⑦口⑨
⑧口口⑧
口口口口 |-⑥-⑦|
⑥口口⑥ |⑧-⑨-|
49
口口口口 |①-②-|
⑥①③⑥ |③-④⑤|
②④口② |----|
⑤①③⑤ |--⑥-|
50
①口③① |①---|
口④②口 |②-③④|
①口③①
口④口口

口⑦口口
⑤口口口
⑥⑤口口 |--⑤-|
口口口口 |⑥-⑦-|
51
③口口② |①--②|
⑤③②① |--③-|
③⑥①② |④---|
④口口④ |--⑤⑥|
52
③⑦口口 |①---|
口口②⑥ |②-③-|
口口③⑤ |--④⑤|
②口①④ |⑥-⑦-|
53
⑤口⑤口 |①-②③|
①④口口 |-④⑤-|
口②口口
③口③口

口口口⑥
⑥口口口
口口口⑥ |----|
口口口口 |--⑥-|
54
③①②口 |①--②|
口②①③ |--③-|
③①②口
口口口口

口⑤口⑤
口口⑤口
口口⑥⑤ |④--⑤|
④④④④ |--⑥-|
55
①⑤①口 |①-②-|
口①④⑧ |③-④-|
①③⑦口 |⑤-⑥-|
口②口⑥ |⑦-⑧-|
56
①⑦⑦口 |①--②|
②③口④ |③---|
①口⑥⑤ |④--⑤|
口口口④ |⑥-⑦-|
57
①口口口 |①②③④|
⑥⑦②⑧ |⑤--⑥|
③口⑨口 |⑦-⑧-|
⑤口④⑩ |⑨-⑩-|
58
口口口口 |①--②|
口口口口 |③-④-|
①①④口
②③口口

口口口口
口口口口
⑥⑦口⑤ |⑤-⑥-|
口口⑧⑥ |⑦-⑧-|
59
口口口⑤ |①---|
②口⑤口 |----|
口口④③ |②-③-|
①口③④ |④-⑤-|
60
①口①口 |①---|
口④口口 |②-③-|
口②⑤② |--④-|
③⑥③口 |⑤-⑥-|
61
①口①口 |①--②|
口口口口 |--③-|
口②口② |----|
③口③口 |----|
62
①②⑥⑤ |①-②-|
③④⑧⑦ |③④--|
①②⑥⑤ |⑤-⑥-|
口口口口 |⑦⑧--|
63
③口口③ |①-②-|
⑤口口⑤ |③④-⑤|
④①口④ |⑥---|
⑥②②⑥ |----|


不確定度: 0

最終更新:2013年10月17日 16:10