Triple Journey -S-C-U EDITION-
Triumvirate

EXTREME

Level: 9
BPM: 200
Notes: 648

1
口口口口 |----|
口口口口 |----|
口口口口 |----|
口口口口 |----|
2
口口口口 |----|
口口口口 |----|
口口口口 |----|
口口口口 |----|
3
①①①口 |①-②-|
口②口④ |③---|
口③口⑤ |--④-|
口口⑥⑥ |⑤-⑥-|
4
口①口口 |--①-|
口①③口 |②---|
②②④④ |③-④-|
口口⑤⑤ |⑤---|
5
①①①口 |①-②-|
口②口④ |③---|
口③口⑤ |--④-|
口口⑥⑥ |⑤-⑥-|
6
①①口口 |--①-|
①①口③ |②---|
口②④④ |③-④-|
②②⑤⑤ |⑤---|
7
①①①口 |①-②-|
口②口④ |③---|
口③口⑤ |--④-|
口口⑥⑥ |⑤-⑥-|
8
⑤⑤口③ |--①-|
⑤①③③ |②---|
①①④④ |③-④-|
②②口口 |⑤---|
9
口口②⑤ |①--②|
⑥③口口 |--③-|
⑥口口口 |④--⑤|
口口①④ |--⑥-|
10
口口口口 |----|
口口口① |----|
口口口① |--①-|
口口口口 |----|
11
①①①口 |①-②-|
①①②口 |③-④-|
①③①口
口口④口

口口口口
口口口口
口口⑧口 |⑤-⑥-|
⑤⑦口⑥ |⑦-⑧-|
12
口口口口 |----|
口口口口 |----|
口口口口 |----|
口口口口 |----|
13
口①①① |①-②-|
口②①① |③-④-|
口①③①
口④口口

口口口口
口口口口
口⑧口口 |⑤-⑥-|
⑥口⑦⑤ |⑦-⑧-|
14
⑥口口⑤ |----|
①②③④ |----|
口口口口 |①②③④|
口口口口 |⑤-⑥-|
15
口⑥口口 |--①-|
⑥④口口 |②-③-|
③⑥⑤② |--④-|
⑥①口口 |⑤-⑥-|
16
④⑤口③ |--①-|
口口③口 |②-③-|
⑥口⑥③ |--④-|
口⑥②① |⑤-⑥-|
17
③口口④ |----|
口①②口 |--①-|
口口口口 |②-③-|
口⑤⑤口 |④-⑤-|
18
口口口口 |----|
口口口口 |----|
口口口口 |----|
口口口口 |----|
19
⑤⑦⑦⑥ |①-②-|
⑦③④⑦ |③-④-|
口①②口 |--⑤-|
口口口口 |⑥-⑦-|
20
口口口口 |--①-|
口口②口 |--②-|
③①①④ |③-④-|
⑤①①⑥ |⑤-⑥-|
21
口②口口 |①-②-|
③口口口 |③-④-|
口④口口
口①①口

口口口口
口口⑤口
口口口⑥ |--⑤-|
口口⑦口 |⑥-⑦-|
22
口②③口 |--①-|
口④口口 |--②-|
口口①⑤ |③-④-|
口⑥口口 |⑤-⑥-|
23
①②口② |①---|
①口②③ |--②-|
①①③③ |----|
口口③③ |③---|
24
①④②② |--①-|
①①②口 |----|
①①口口 |②---|
①①③③ |③-④-|
25
③口口⑥ |①--②|
口③⑥① |--③-|
口⑤口① |--④-|
②②④口 |⑤-⑥-|
26
口口口口 |----|
①②口③ |①②③-|
口口口③ |----|
口口口口 |----|
27
①口口② |①-②-|
③口口④ |③-④-|
口⑦⑧口 |⑤-⑥-|
口⑤⑥口 |⑦-⑧-|
28
口①②口 |①-②-|
口③④口 |③-④-|
⑦口口⑧ |⑤-⑥-|
⑤口口⑥ |⑦-⑧-|
29
①③④② |①-②-|
口口口口 |③-④-|
口⑦口口 |⑤-⑥-|
⑧⑤⑥⑧ |⑦-⑧-|
30
①口口① |--①-|
④⑤⑥⑦ |--②-|
②口口③ |③--④⑤⑥|
口口⑧口 |⑦-⑧-|
31
①②⑥口 |①-②-|
⑦⑧口口 |③-④-|
④⑤③口 |⑤-⑥-|
口口口口 |⑦-⑧-|
32
口口⑧⑥ |①-②-|
口口④口 |③-④-|
⑦⑤口口 |⑤-⑥-|
②③①口 |⑦-⑧-|
33
口①口口 |①---|
①口口口 |----|
口口口口
口口口口

口④口口
口口口口
口口③口 |--②-|
口②口口 |③-④-|
34
口口①口 |----|
口②口③ |①②③-|
口口口口 |----|
口口口口 |----|
35
③口口① |①-②-|
口口①口 |③-④-|
①①口④
①①口②

口⑤口口
口⑥口口
口⑦口口 |--⑤-|
口口口口 |⑥-⑦-|
36
③口口② |--①-|
口口口口 |②---|
口口口④ |③--④|
⑤口口① |--⑤-|
37
口口①口 |①-②-|
口②口⑤ |③-④-|
口口③⑥ |--⑤-|
口④口⑦ |⑥-⑦-|
38
口③⑤口 |--①-|
口②口口 |②-③-|
口①口口 |--④-|
口口④口 |⑤---|
39
②口口⑥ |①---|
③口口⑤ |②-③-|
口①①④ |--④-|
口口口口 |⑤-⑥-|
40
口口口口 |----|
③③口口 |①---|
②②口口 |②---|
①①口口 |③---|
41
②③②② |①---|
④⑤⑤⑤ |②-③-|
口口口口 |--④-|
口口①① |⑤---|
42
④口⑥⑥ |①-②-|
⑤⑥口口 |③-④-|
①②口口 |⑤---|
口口③③ |⑥---|
43
③①口口 |①-②-|
口口①④ |③-④-|
①①口①
①①②口

口口口⑥
⑤口口口
口⑦口口 |--⑤-|
口口口口 |⑥-⑦-|
44
⑤口②口 |--①-|
口口口④ |②---|
口口口口 |③--④|
口③①口 |--⑤-|
45
口①口⑦ |①-②-|
口口②⑥ |③-④-|
口③口⑤ |--⑤-|
口口④口 |⑥-⑦-|
46
③⑤⑤口 |--①-|
②口口口 |②-③-|
①④④口 |--④-|
口口口口 |⑤---|
47
口口口口 |①---|
②③②② |②-③-|
④⑤⑤⑤ |--④-|
口①①口 |⑤---|
48
口④③③ |①-②-|
口⑤口口 |③-④-|
口⑥口口 |⑤---|
①②⑥⑥ |⑥---|
49
①口③⑤ |①-②-|
①③③③ |--③-|
②口③⑤ |--④-|
②口④④ |--⑤-|
50
①②⑥口 |--①-|
②⑤②口 |②---|
①②④口 |③-④-|
口③口口 |⑤-⑥-|
51
②口口口 |①---|
口口⑥④ |②-③-|
口口⑤口 |-④--|
①口口③ |⑤-⑥-|
52
④④口口 |①--②|
②②⑦⑥ |--③-|
③③口口 |-④--|
①①⑤⑤ |⑤-⑥⑦|
53
口口口口 |①---|
③⑥口口 |②-③-|
口⑤①④ |-④--|
②②口口 |⑤-⑥-|
54
口①口④ |①--②|
口口⑦⑥ |--③-|
③口口口 |-④--|
口⑤②口 |⑤-⑥⑦|
55
②②④④ |①--②|
⑤⑥⑦⑧ |--③-|
口①①口 |-④--|
口口③③ |⑤⑥⑦⑧|
56
②④口口 |①--②|
口口⑥口 |--③-|
口口口口 |-④--|
①③⑤口 |⑤-⑥-|
57
口口③③ |①---|
②口口口 |②---|
口④①① |③---|
口口口口 |④---|
58
①②口⑤ |①-②-|
口②口⑥ |③-④-|
③口口⑦ |⑤-⑥-|
③④口⑧ |⑦-⑧-|
59
②口口口 |①---|
口口⑥④ |②-③-|
口①⑤口 |-④--|
口口③口 |⑤-⑥-|
60
④④口口 |①--②|
②②⑦⑥ |--③-|
③③口口 |-④--|
①①⑤⑤ |⑤-⑥⑦|
61
口口口口 |①---|
③⑥口口 |②-③-|
口⑤①④ |-④--|
②②口口 |⑤-⑥-|
62
口①口④ |①--②|
口口⑦⑥ |--③-|
③口口口 |-④--|
口⑤②口 |⑤-⑥⑦|
63
②②口⑥ |①-②-|
④④⑥口 |③-④-|
③③①⑤ |--⑤-|
口口⑤口 |--⑥-|
64
口口口口 |----|
口口口口 |----|
口口口口 |----|
口口口口 |----|
65
②口口④ |①---|
①①①① |②---|
③③③③ |③---|
口口口口 |④---|
66
③③③口 |①---|
②③口④ |②---|
口③口口 |③---|
①①①① |④---|
67
④⑥⑤③ |①-②-|
⑧口①⑦ |③-④-|
②口①① |⑤-⑥-|
口口①① |⑦-⑧-|
68
口口口口 |①-②-|
口②①口 |③-④-|
④⑥⑤③ |⑤-⑥-|
⑧口口⑦ |⑦-⑧-|
69
②④⑥⑧ |①-②-|
①③⑤⑦ |③-④-|
口口口口 |⑤-⑥-|
口口口口 |⑦-⑧-|
70
口⑧⑥口 |①-②-|
口口口口 |③-④-|
④口口② |⑤-⑥-|
③⑦⑤① |⑦-⑧-|
71
①口口① |①-②-|
口①①口 |③-④-|
口①①④
③口口②

口口口⑧
⑦口口⑥
⑤口口口 |⑤-⑥-|
口口口口 |⑦-⑧-|
72
口口口口 |----|
口口口口 |----|
口口口口 |----|
口口口口 |----|
73
①口口① |①-②-|
口①①口 |③-④-|
口①①④
③口口②

口口口⑧
⑦口口⑥
⑤口口口 |⑤-⑥-|
口口口口 |⑦-⑧-|
74
口⑥口口 |----|
⑥⑥⑥⑥ |----|
口⑥⑤⑥ |①②③④|
①②③④ |⑤-⑥-|
75
①口②③ |--①②|
口口口口 |③-④-|
④口⑨口 |--⑤⑥|
⑤⑥⑦⑧ |⑦⑧⑨-|
76
④③⑩口 |--①②|
⑤⑩②⑩ |③④⑤-|
⑥⑦⑩① |--⑥⑦|
口⑩⑧⑨ |⑧⑨⑩-|
77
④③⑨② |----|
⑤⑨⑨⑨ |--①②|
口⑥⑨① |③④⑤⑥|
口⑨⑦⑧ |⑦⑧⑨-|
78
口口口口 |----|
口口口口 |----|
口口口口 |----|
口口口口 |----|
79
口①②口 |①---|
①口②③ |--②-|
①①③③ |----|
①口③口 |③---|
80
口口口口 |--①-|
口口口口 |----|
口口口口 |②---|
口①口② |----|


不確定度: 0

最終更新:2013年11月11日 13:19