オリオンをなぞる
UNISON SQUARE GARDEN

EXTREME

Level: 9
BPM: 182
Notes: 547

全程BPM在182附近飄忽不定
1
⑤口口口 |----|
③口口④ |----|
①口口② |①②③④|
⑥⑥口⑥ |⑤-⑥-|
2
口②口④ |①-②-|
口口③口 |③-④-|
⑥⑤①口 |--⑤-|
口口⑥口 |--⑥-|
3
③口口② |--①-|
口口④③ |②-③-|
口⑤口① |--④-|
⑥⑥⑥⑥ |⑤-⑥-|
4
③口②③ |--①-|
口①口口 |②-③-|
④口口④ |--④-|
⑥口⑤⑥ |⑤-⑥-|
5
口②口③ |--①-|
口口④口 |②-③-|
口⑤①口 |④-⑤-|
口口⑥口 |⑥---|
6
口口口② |①---|
口口口口 |②-③-|
③口口③
①①口口

口口⑤口
口④口口
口⑥口口 |④-⑤-|
口⑦⑤④ |⑥-⑦-|
7
④口口⑥ |①-②-|
③⑦⑤② |③-④-|
④口①⑥ |--⑤-|
口口口口 |⑥-⑦-|
8
口口①口 |①-②-|
口口口③ |③-④-|
⑧②⑤⑧ |⑤-⑥-|
④⑥⑦口 |⑦-⑧-|
9
①口③口 |--①②|
口②口④ |③-④-|
口口口口 |⑤---|
口⑤口口 |----|
10
⑤④③② |①---|
口口⑥⑥ |②-③-|
口④口口 |④-⑤-|
②口①① |⑥---|
11
口口口口 |①-②-|
⑦④口⑥ |③-④-|
①⑤口③ |⑤-⑥-|
②⑧⑧口 |⑦-⑧-|
12
口口⑤口 |----|
口口①口 |①-②-|
①③②③ |③-④-|
④⑤⑥口 |⑤-⑥-|
13
①①口④ |①---|
②②⑥① |②---|
③③②⑤ |③-④-|
口口口③ |⑤-⑥-|
14
①①口口 |①---|
②②口口 |----|
口③口③ |②---|
口口①口 |--③-|
15
口④①口 |--①-|
口口口口 |②---|
⑤⑥②口 |③-④-|
口③①口 |⑤-⑥-|
16
口口口口 |①---|
②①①② |----|
口③口③ |②---|
②口口② |--③-|
17
口③②口 |--①-|
口⑤口口 |②---|
口口①口 |③-④-|
口④②口 |⑤---|
18
⑤④③② |①---|
口口⑦⑥ |②-③-|
①④口① |④-⑤-|
②口口口 |⑥-⑦-|
19
口口口口 |①-②-|
⑦④口⑥ |③-④-|
①⑤口③ |⑤-⑥-|
②⑧⑧口 |⑦-⑧-|
20
口口⑤口 |----|
口口①口 |①-②-|
①③②③ |③-④-|
④⑤口口 |⑤---|
21
①①口④ |①---|
②②⑥① |②---|
③③②⑤ |③-④-|
口口口③ |⑤-⑥-|
22
①①口口 |①---|
②②口口 |----|
口③口③ |②---|
口口①口 |--③-|
23
口④①口 |--①-|
口口口口 |②---|
⑤⑥②口 |③-④-|
口③①口 |⑤-⑥-|
24
口口口口 |①---|
②①①② |----|
口③口③ |②---|
②口口② |--③-|
25
口③①口 |--①-|
口⑤口口 |②-③-|
口⑥②口 |④-⑤-|
口④①口 |⑥---|
26
①③④② |①---|
②④③① |--②-|
①③④② |--③-|
②④③① |--④-|
27
①③口② |--①-|
②口③① |--②-|
①③口② |③---|
②口③① |----|
28
④口口口 |①---|
口①口口 |--②-|
口③①② |③---|
口口口① |--④-|
29
口口②④ |①-②-|
口①④③ |③---|
口④口口 |④---|
口⑤口口 |--⑤-|
30
口口口④ |①---|
口①口口 |--②-|
口口①口 |③---|
③口②① |--④-|
31
口②口口 |①-②-|
③口①口 |③---|
口口口口
口口口口

④口口口
口④⑥口
口⑥④口 |④---|
⑥口⑤口 |⑤-⑥-|
32
口口口口 |----|
口②口口 |--①-|
口口①口 |②---|
口③③口 |--③-|
33
③②①③ |①-②-|
③⑥⑥③ |③---|
口④④口 |④-⑤-|
⑤口口⑤ |⑥---|
34
口口④③ |----|
口口③④ |①---|
口口②口 |②---|
④口①口 |③-④-|
35
④⑦口口 |①-②-|
⑥⑤口口 |③-④-|
③①口口 |⑤-⑥-|
口②口口 |⑦---|
36
口口④③ |----|
口口③④ |①---|
口口②口 |②---|
④口①口 |③-④-|
37
⑤⑦口口 |--①-|
⑥④口口 |②-③-|
③口口① |④-⑤-|
口②口口 |⑥-⑦-|
38
口口④③ |----|
口口③④ |①---|
口口②口 |②---|
口口①口 |③-④-|
39
⑥⑥⑥⑥ |--①-|
③③口口 |②-③-|
⑤口口② |④--⑤|
①①④④ |--⑥-|
40
口口口口 |----|
口口口口 |----|
口口口口 |----|
①①①① |--①-|
41
口口①口 |----|
口①口口 |----|
①口口口 |----|
口口口口 |--①-|
42
口②口口 |----|
①口③⑤ |①-②-|
口口⑤口 |③-④-|
④⑤口④ |--⑤-|
43
③①口① |----|
④③口口 |①-②-|
②口⑤② |--③-|
口口口口 |④-⑤-|
44
口口①口 |----|
口口②① |①-②-|
口③口④ |--③-|
②④③口 |--④-|
45
口口②① |----|
口④③② |--①-|
口口④口 |②-③-|
⑤口口口 |④-⑤-|
46
①②口口 |----|
②③④口 |--①-|
口④口口 |②-③-|
口口口⑤ |④-⑤-|
47
口口口口 |----|
口①口③ |----|
口口②口 |--①-|
口口口口 |②-③-|
48
①②①② |①---|
口口口口 |②---|
口口口口
②①②①

⑤口⑤口
③④③④
④③④③ |③---|
口口口口 |④-⑤-|
49
口②口② |--①-|
口口口口 |②---|
口口口口 |③---|
③①③① |----|
50
口③①② |①---|
②①④⑥ |②-③-|
①⑤⑥⑤ |④-⑤-|
口⑥口口 |--⑥-|
51
③①口① |----|
④③口口 |①-②-|
口口⑤口 |--③-|
②口②口 |④-⑤-|
52
口口①口 |----|
口口②① |①-②-|
④③口④ |--③-|
②口③口 |--④-|
53
口口②① |----|
口④③② |--①-|
口口④口 |②-③-|
⑤口口口 |④-⑤-|
54
②口口③ |①---|
口口口口 |--②-|
口口口口 |③---|
④口口① |--④-|
55
口口口④ |①-②-|
口③口口 |③-④-|
①②③口
口①口口

⑤口口口
口口口口
口口口口 |⑤---|
口⑥⑥口 |--⑥-|
56
③⑤⑤③ |①---|
④②①④ |②-③-|
③⑤⑤③ |--④-|
④口口④ |--⑤-|
57
口口口口 |----|
口①①口 |----|
口口口口 |----|
口②②口 |①-②-|
58
口口口口 |----|
口口口口 |----|
口口口口 |--①-|
①口口① |----|
59
①口口④ |①-②-|
口①④口 |③-④-|
②④①口
口③口口

⑦口口口
口⑦口口
口口⑦⑤ |--⑤-|
口口⑥口 |⑥-⑦-|
60
⑤口口③ |--①-|
口口③口 |②-③-|
①③口口 |--④-|
口②口④ |--⑤-|
61
口②口④ |----|
口口③口 |----|
①口①口 |①-②-|
口口口口 |③-④-|
62
⑤口口④ |--①-|
口口口⑤ |--②-|
②①口③ |--③-|
口口②口 |④-⑤-|
63
⑥口⑤⑥ |--①-|
口④①口 |②-③-|
口②口口 |--④-|
③③③③ |⑤-⑥-|
64
口⑤口口 |--①-|
口口口口 |②-③-|
①口④① |--④-|
③口②③ |⑤---|
65
口口口⑥ |①-②-|
口口①口 |③---|
⑦②口口 |④-⑤-|
⑤④③口 |⑥-⑦-|
66
⑧口②口 |①-②-|
口①口⑥ |③-④-|
口③⑤口 |⑤-⑥-|
口④⑦口 |⑦-⑧-|
67
口⑥口口 |①-②-|
口①③口 |③-④-|
口口⑤② |⑤---|
⑦④口⑦ |⑥-⑦-|
68
②口口② |--①-|
口①①口 |--②-|
②口口② |----|
口口口口 |----|


不確定度: 0

タグ:

+ タグ編集
  • タグ:

このサイトはreCAPTCHAによって保護されており、Googleの プライバシーポリシー利用規約 が適用されます。

最終更新:2013年04月07日 23:16