Move That Body
Expander

EXTREME

Level: 10
BPM: 196
Notes: 804

1
口口口口 |----|
口口口口 |----|
口口口口 |----|
口口口口 |----|
2
口口③口 |①---|
口④口口 |②---|
⑤①①③ |--③-|
②⑤④口 |④-⑤-|
3
⑥口口② |①-②-|
⑤⑧④① |③-④-|
口⑦③口 |⑤-⑥-|
口口口口 |⑦-⑧-|
4
③①①③ |①---|
口口口口 |②---|
口口口口 |③---|
④②②④ |④---|
5
⑥⑥①⑤ |①-②-|
①⑥口口 |③-④-|
口④③② |⑤---|
口口口口 |⑥---|
6
口⑤口④ |①---|
②口⑥① |②-③-|
⑤口③⑦ |④-⑤-|
①⑥⑦口 |⑥-⑦-|
7
口⑥④口 |①-②-|
②口口⑧ |③-④-|
口⑤③口 |⑤-⑥-|
①口口⑦ |⑦-⑧-|
8
①口口④ |①---|
⑤①口口 |②---|
①口②口 |③-④-|
③②口口 |⑤---|
9
③②①③ |①---|
口①②口 |②---|
②③③① |③---|
口②①口 |----|
10
④②口⑤ |①---|
①⑥③① |②-③-|
②④⑤口 |④-⑤-|
口⑥口③ |⑥---|
11
⑥口①⑥ |①-②-|
②口口口 |③-④-|
口口口③ |--⑤-|
④口⑤口 |⑥---|
12
口口口口 |----|
口口口口 |----|
口口口口 |①---|
口①①口 |----|
13
⑤②①③ |①-②-|
②口⑥口 |③-④-|
⑤④③① |--⑤-|
④口⑥口 |--⑥-|
14
⑤口②④ |①---|
①③⑥① |②-③-|
口⑤④② |④-⑤-|
③口⑥口 |⑥---|
15
⑥①口⑥ |①-②-|
口口口② |③-④-|
③口口口 |--⑤-|
口⑤口④ |⑥---|
16
口口口口 |----|
口①口口 |--①-|
口口②④ |②-③-|
口③口口 |④---|
17
①①②⑤ |①-②-|
①⑥②② |③-④-|
③③④⑤ |--⑤-|
③⑥④④ |--⑥-|
18
④②口⑤ |①---|
①⑥③① |②-③-|
②④⑤口 |④-⑤-|
口⑥口③ |⑥---|
19
⑥口①⑥ |①-②-|
②口口口 |③-④-|
口口口③ |--⑤-|
④口⑤口 |⑥---|
20
口口口口 |----|
口口口口 |----|
口口口口 |①---|
口①①口 |----|
21
⑤②①③ |①-②-|
②口⑥口 |③-④-|
⑤④③① |--⑤-|
④口⑥口 |--⑥-|
22
⑤口②④ |①---|
①③⑥① |②-③-|
口⑤④② |④-⑤-|
③口⑥口 |⑥---|
23
⑥①口⑥ |①-②-|
口口口② |③-④-|
③口口口 |--⑤-|
口⑤口④ |⑥---|
24
口口口口 |----|
口①口口 |--①-|
口口②④ |②-③-|
口③口口 |④---|
25
①①②⑤ |①-②-|
①⑥②② |③-④-|
③③④⑤ |--⑤-|
③⑥④④ |--⑥-|
26
口口口口 |①---|
②口口① |--②-|
口口口口 |----|
口口口口 |----|
27
口⑤⑥口 |①-②-|
④⑦⑧① |③-④-|
口③④口 |⑤-⑥-|
口①②口 |⑦-⑧-|
28
口③⑤口 |①---|
口口口口 |②---|
①④⑥② |③-④-|
①口口② |⑤-⑥-|
29
④口口② |①-②-|
③⑤⑧① |③-④-|
⑥口口⑨ |⑤-⑥-⑦-|
口⑦⑩口 |⑧-⑨-⑩-|
30
④①口口 |①---|
②④口① |--②-|
口口口口 |--③-|
口口口③ |④---|
31
口①口口 |①---|
②⑤③① |--②-|
口⑥④口 |③-④-|
口口口口 |⑤-⑥-|
32
⑤③②⑤ |①-②-|
③口④② |③-④-|
口⑥⑦④ |⑤---|
①⑧⑨口 |⑥⑦⑧⑨|
33
③②①口 |①---|
口①②④ |②---|
口口口③ |③---|
④口口口 |④---|
34
④④口口 |①-②-|
①口②口 |③-④-|
口③口口 |--⑤-|
⑤口④⑥ |⑥---|
35
口口④④ |①-②-|
口②口① |③-④-|
口口③口 |--⑤-|
⑥④口⑤ |⑥---|
36
⑤①口口 |①-②-|
口口②⑦ |③-④-|
⑥③口口 |⑤-⑥-|
口口④⑧ |⑦-⑧-|
37
口⑦⑧① |①-②-|
②⑨⑥口 |③-④-|
⑩口③⑤ |⑤-⑥-⑦-|
④口口口 |⑧-⑨-⑩-|
38
口⑥⑤④ |①-②-|
口口口① |③-④-|
口②口④ |--⑤-|
④口③口 |⑥---|
39
④⑤⑥口 |①-②-|
①口口口 |③-④-|
④口②口 |--⑤-|
口③口④ |⑥---|
40
④口口③ |①-②-|
②口①口 |③-④-|
④口口③
②口①口

口口口口
口口口⑤
口⑥⑦口 |⑤---|
口⑧⑨⑤ |⑥⑦⑧⑨|
41
③②①口 |①---|
口①②④ |②---|
口口口③ |③---|
④口口口 |④---|
42
口②口口 |①---|
口口口口 |②---|
口口口口
口口口①

口口口口
口⑥⑤④
③口口口 |③-④⑤|
口口口⑦ |⑥-⑦-|
43
④口③口 |--①-|
②口⑤口 |②-③-|
④①口口 |④-⑤-|
⑥⑥⑤口 |⑥---|
44
口口⑦⑤ |--①-|
口①口⑦ |②③④-|
口④③② |⑤-⑥-|
⑥口口口 |--⑦-|
45
①③口⑤ |--①-|
③①⑤口 |②-③-|
口⑥④② |④-⑤-|
⑥口②④ |⑥---|
46
⑤口②⑤ |①---|
口口④口 |②---|
③口口口 |③-④-|
口①口口 |--⑤-|
47
口①口口 |--①-|
①③口② |②-③-|
③⑤②④ |④-⑤-|
⑤⑥④⑥ |⑥---|
48
②口口③ |--①-|
口④口口 |②-③-|
口口①口 |④-⑤-|
⑤口⑦⑥ |--⑥⑦|
49
⑤③②⑤ |--①-|
④⑥⑥① |②-③-|
④③②① |④-⑤-|
⑦口口口 |⑥-⑦-|
50
口②口口 |①---|
口口口口 |②---|
口口口口
口口口①

口口口口
口⑥⑤④
③口口口 |③-④⑤|
口口口⑦ |⑥-⑦-|
51
④口③口 |--①-|
②口⑤口 |②-③-|
④①口口 |④-⑤-|
⑥⑥⑤口 |⑥---|
52
口口⑦⑤ |--①-|
口①口⑦ |②③④-|
口④③② |⑤-⑥-|
⑥口口口 |--⑦-|
53
①③口⑤ |--①-|
③①⑤口 |②-③-|
口⑥④② |④-⑤-|
⑥口②④ |⑥---|
54
⑤口②⑤ |①---|
口口④口 |②---|
③口口口 |③-④-|
口①口口 |--⑤-|
55
口①口口 |--①-|
①③口② |②-③-|
③⑤②④ |④-⑤-|
⑤⑥④⑥ |⑥---|
56
②口口③ |--①-|
口④口口 |②-③-|
口口①口 |④-⑤-|
⑤口⑦⑥ |--⑥⑦|
57
⑤③②⑤ |--①-|
④⑥⑥① |②-③-|
④③②① |④-⑤-|
⑦口口口 |⑥-⑦-|
58
⑥⑤④口 |①--②|
⑤⑥口① |--③-|
④口③② |④--⑤|
口①②③ |--⑥-|
59
口口⑤⑤ |①-②-|
口口③⑤ |③-④-|
⑥⑥口② |⑤---|
①④口口 |⑥---|
60
①②口口 |①---|
②①口口 |②---|
口口③④ |③---|
口口④③ |④---|
61
口口口口 |①---|
口口①① |②---|
口口口口
②②口口

口③⑤口
口④⑥口
口口口口 |③-④-|
口口口口 |⑤-⑥-|
62
口④⑤⑥ |①--②|
①口⑥⑤ |--③-|
②③口④ |④--⑤|
③②①口 |--⑥-|
63
⑤⑤口口 |①-②-|
⑤③口口 |③-④-|
②口⑥⑥ |⑤---|
口口④① |⑥---|
64
口口②① |①---|
口口①② |②---|
④③口口 |③---|
③④口口 |④---|
65
口口口口 |①---|
①①口口 |②---|
口口口口
口口②②

口⑤③口
口⑥④口
口口口口 |③-④-|
口口口口 |⑤-⑥-|
66
①口④① |①---|
口口④口 |②---|
口③②口 |③---|
口口口口 |④---|
67
口口口口 |--①-|
⑥④⑤口 |②-③-|
口⑥⑦口 |④-⑤-|
①③口② |⑥-⑦-|
68
④①①口 |①---|
④口口口 |②---|
②口口口 |③---|
口口口③ |④---|
69
⑥③①③ |①-②-|
⑧①③① |③-④-|
⑤⑦⑤② |⑤-⑥-|
⑦⑤⑦④ |⑦-⑧-|
70
⑥口①② |①---|
口口②① |②---|
③口⑤③ |③-④-|
口④口口 |⑤-⑥-|
71
口口①④ |①-②-|
口②口⑤ |③---|
⑥口口口 |④-⑤-|
⑦口口③ |⑥-⑦-|
72
⑧口口口 |①-②③|
⑤⑥⑦⑨ |④-⑤⑥|
口④③② |⑦-⑧-|
⑩①口口 |⑨-⑩-|
73
口③⑤② |①-②-|
口口口⑦ |③-④-|
口口口⑧ |⑤-⑥-|
口④⑥① |⑦-⑧-|
74
①②口口 |①---|
②①口口 |②---|
口口口口
口口口口

⑥口口口
口口③口
口口口口 |③-④-|
④口口⑤ |⑤-⑥-|
75
口④②口 |①-②-|
口③⑤口 |③-④-|
⑥①①⑦ |⑤-⑥-|
口⑧口口 |⑦-⑧-|
76
口⑤⑤④ |①-②-|
③⑦⑦② |③-④-|
口①①口 |⑤-⑥-|
⑧口口⑥ |⑦-⑧-|
77
③⑥口④ |①-②-|
⑧口口② |③-④-|
①口⑦① |⑤-⑥-|
口⑤⑤口 |⑦-⑧-|
78
⑥口①② |①---|
口口②① |②---|
③口⑤③ |③-④-|
口④口口 |⑤-⑥-|
79
口口①④ |①-②-|
口②口⑤ |③---|
⑥口口口 |④-⑤-|
⑦口口③ |⑥-⑦-|
80
⑧口口口 |①-②③|
⑤⑥⑦⑨ |④-⑤⑥|
口④③② |⑦-⑧-|
⑩①口口 |⑨-⑩-|
81
口③⑤② |①-②-|
口口口⑦ |③-④-|
口口口⑧ |⑤-⑥-|
口④⑥① |⑦-⑧-|
82
①②口口 |①---|
②①口口 |②---|
口口口口
口口口口

⑥口口口
口口③口
口口口口 |③-④-|
④口口⑤ |⑤-⑥-|
83
口④②口 |①-②-|
口③⑤口 |③-④-|
⑥①①⑦ |⑤-⑥-|
口⑧口口 |⑦-⑧-|
84
口⑤⑤④ |①-②-|
③⑦⑦② |③-④-|
口①①口 |⑤-⑥-|
⑧口口⑥ |⑦-⑧-|
85
③⑥口④ |①-②-|
⑧口口② |③-④-|
①口⑦① |⑤-⑥-|
口⑤⑤口 |⑦-⑧-|
86
口口口口 |①-②-|
口④③② |③-④-|
口口口口
①口口①

口⑤⑤口
口口口口
口口口口 |⑤-⑥-|
口⑥⑦⑧ |⑦-⑧-|
87
口⑤口④ |①---|
②口⑥① |②-③-|
⑤口③⑦ |④-⑤-|
①⑥⑦口 |⑥-⑦-|
88
口⑥④口 |①-②-|
②口口⑧ |③-④-|
口⑤③口 |⑤-⑥-|
①口口⑦ |⑦-⑧-|
89
①口口④ |①---|
⑤①口口 |②---|
①口②口 |③-④-|
③②口口 |⑤---|
90
③②①③ |①---|
口①②口 |②---|
②③③① |③---|
口②①口 |----|


不確定度: 0

最終更新:2013年11月11日 13:32