蒼天
Tatsh

EXTREME

Level: 9
BPM: 176
Notes: 599

1
口口口口 |----|
口口口口 |----|
口口口口 |----|
口口口口 |----|
2
口③口口 |①---|
①②口口 |--②-|
口口②① |--③-|
口口③口 |----|
3
口口口口 |----|
口口口口 |----|
口口口口 |----|
口口口口 |----|
4
口口②口 |①---|
口口③① |--②-|
①③口口 |--③-|
口②口口 |----|
5
口口口口 |----|
口口口口 |----|
口口口口 |----|
口口口口 |----|
6
口③口口 |①---|
①②口口 |--②-|
口口②① |--③-|
口口③口 |----|
7
口口口口 |----|
口口口口 |----|
口口口口 |----|
口口口口 |----|
8
口③口口 |①---|
口口②① |--②-|
①②口口 |--③-|
口口③口 |----|
9
口口口口 |----|
口口口口 |----|
口口口口 |----|
口口口口 |----|
10
⑤口口③ |①-②-|
⑥口口④ |③-④-|
口口口口 |⑤-⑥-|
①②⑧⑦ |⑦-⑧-|
11
口⑤③口 |①-②-|
口⑥④口 |③-④-|
口⑧⑦口 |⑤-⑥-|
②①口口 |⑦-⑧-|
12
③口口⑤ |①-②-|
④口口⑥ |③-④-|
口口口口 |⑤-⑥-|
⑦⑧②① |⑦-⑧-|
13
口③⑤口 |①-②-|
口④⑥口 |③-④-|
口⑦⑧口 |⑤-⑥-|
口口①② |⑦-⑧-|
14
⑤⑥④③ |①-②-|
口口口口 |③-④-|
②口口⑧ |⑤-⑥-|
口①⑦口 |⑦-⑧-|
15
口口口口 |①-②-|
①⑥⑧③ |③-④-|
口口口口 |⑤-⑥-|
②⑤⑦④ |⑦-⑧-|
16
⑤⑤⑥⑥ |①-②-|
口口口口 |③-④-|
口①②口 |⑤-⑥-|
③⑦⑦④ |--⑦-|
17
口口④④ |--①-|
口⑤口③ |②-③-|
①⑤口口 |④---|
②口口口 |⑤---|
18
口口口口 |①---|
口口口口 |----|
口口①口 |②---|
口②②① |----|
19
⑦⑤⑥⑦ |①-②-|
口口③口 |③-④-|
口口①④ |⑤--⑥|
口⑥⑤② |--⑦-|
20
⑦⑥⑤⑦ |①-②-|
口③口口 |③-④-|
④①口口 |⑤--⑥|
②⑤⑥口 |--⑦-|
21
⑦⑤⑥⑦ |①-②-|
口口③口 |③-④-|
口口①④ |⑤--⑥|
口⑥⑤② |--⑦-|
22
口③③口 |①---|
口①②口 |②---|
①口口② |③---|
④口口④ |④---|
23
③⑦⑦① |①-②-|
⑥口口⑥ |③-④-|
⑤口口⑤ |⑤--⑥|
口④②口 |--⑦-|
24
③⑦⑦① |①-②-|
⑥口口⑥ |③-④-|
⑤口口⑤ |⑤--⑥|
口④②口 |--⑦-|
25
②口口① |①---|
口②①⑤ |②-③-|
口④③⑤ |--④-|
④口口③ |--⑤-|
26
口②②口 |--①-|
①口口口 |--②-|
①口口口 |----|
口口口口 |----|
27
③口口口 |----|
口口①口 |①---|
①口②口 |②---|
②口口③ |③---|
28
口口口① |①---|
口②③口 |--②-|
口③②口 |--③-|
口①口口 |----|
29
口口口③ |----|
口①口口 |①---|
口②口① |②---|
③口口② |③---|
30
①口口口 |①---|
口③②口 |--②-|
口②③口 |--③-|
口口①口 |----|
31
口口口③ |--①-|
口口口② |②-③-|
口口口① |--④-|
口口口④ |----|
32
口口口口 |①---|
口口口口 |----|
②②口口 |②---|
①①口口 |----|
33
口口口口 |①---|
①①口口 |----|
口口口口 |----|
口口口口 |----|
34
①①①① |①---|
口口口口 |----|
口口口口 |----|
口口口口 |----|
35
口①②口 |①-②-|
口③④口 |③-④-|
口⑤⑥口 |⑤-⑥-|
口⑦⑧口 |⑦-⑧-|
36
①②③④ |①-②-|
口⑦⑥③ |③---|
口口⑦② |④--⑤|
⑤口口① |⑥-⑦-|
37
①②③④ |①-②-|
口⑦⑥③ |③---|
口⑤⑦② |④--⑤|
口口口① |⑥-⑦-|
38
①口口⑤ |①-②-|
②⑦口口 |③---|
③⑥⑦口 |④--⑤|
④③②① |⑥-⑦-|
39
①口口口 |①-②-|
②⑦⑤口 |③---|
③⑥⑦口 |④--⑤|
④③②① |⑥-⑦-|
40
①②③④ |①-②-|
口⑦⑥③ |③---|
口口⑦② |④--⑤|
⑤口口① |⑥-⑦-|
41
①口口⑤ |①-②-|
②⑦口口 |③---|
③⑥⑦口 |④--⑤|
④③②① |⑥-⑦-|
42
⑤口①口 |①---|
口口口② |②---|
④口口口 |③---|
口③口口 |④-⑤-|
43
口口②口 |--①-|
口口口② |--②-|
口口口口 |----|
口口口① |----|
44
①①②② |①---|
①口口② |----|
口口口口 |②---|
口口口口 |----|
45
口口口口 |①---|
口口③口 |----|
②口③① |②---|
②②①① |③---|
46
②口口② |①---|
口①口口 |--②-|
口①口口 |----|
③口口③ |③---|
47
口③口口 |----|
口口②口 |----|
口①口口 |①-②-|
口口口口 |③---|
48
⑧口口④ |①-②-|
⑥口口② |③-④-|
③口口⑦ |⑤-⑥-|
①口口⑤ |⑦-⑧-|
49
口⑤①口 |①-②-|
口⑦③口 |③-④-|
口⑥②口 |⑤-⑥-|
口⑧④口 |⑦-⑧-|
50
⑦⑤③① |①-②-|
⑧⑥④② |③-④-|
口口口口 |⑤-⑥-|
口口口口 |⑦-⑧-|
51
口口口口 |①-②-|
口口口口 |③-④-|
⑧⑥④② |⑤-⑥-|
⑦⑤③① |⑦-⑧-|
52
④③②① |①②③④|
口口⑤口 |⑤---|
⑨⑧⑦⑥ |⑥⑦⑧⑨|
口口⑩口 |⑩---|
53
④③②① |①②③④|
⑧⑥⑤⑪ |⑤-⑥-|
⑭口口⑦ |⑦⑧⑨⑩|
⑩⑫⑨⑬ |⑪⑫⑬⑭|
54
④②③① |①---|
口口口口 |②---|
口口口口 |③---|
口口口口 |④---|
55
④②③① |①---|
口口③① |②---|
口口口口 |③---|
口④②口 |④---|
56
④②③① |①---|
④②口口 |②---|
口口③① |③---|
口④②口 |④---|
57
④②③① |①---|
口口口口 |②---|
④②口口 |③---|
口口③① |④---|
58
④②③① |①---|
口口口口 |②---|
口口口口 |③---|
③①口口 |④---|
59
④②③① |①---|
③①口口 |②---|
口口口口 |③---|
口④②口 |④---|
60
④②③① |①---|
④②③① |②---|
口口口口 |③---|
口④②口 |④---|
61
④②③① |①---|
口口口口 |②---|
④②口口 |③---|
口口口口 |④---|
62
口②②口 |①---|
口②②口 |----|
口口口口 |----|
①口口① |②---|
63
④口口① |①--②|
②口口⑤ |--③-|
口⑥③口 |④--⑤|
口④①口 |--⑥-|
64
④口口① |①--②|
②口口⑤ |--③-|
口⑥③口 |④--⑤|
口④①口 |--⑥-|
65
④口口① |①--②|
②口口⑤ |--③-|
口⑥③口 |④--⑤|
口④①口 |--⑥-|
66
口②②口 |①---|
口③①口 |②---|
③口口① |③---|
④口口④ |④---|
67
④口口① |①--②|
②口口⑤ |--③-|
④⑥③① |④--⑤|
口④①口 |--⑥-|
68
④口口① |①--②|
②口口⑤ |--③-|
④⑥③① |④--⑤|
口④①口 |--⑥-|
69
④口口② |①--②|
⑥口口⑤ |--③-|
③口口① |④--⑤|
口口口口 |--⑥-|
70
⑯⑧⑦⑮ |①②③④|
⑭⑥⑤⑬ |⑤⑥⑦⑧|
⑫④③⑪ |⑨⑩⑪⑫|
⑩②①⑨ |⑬⑭⑮⑯|
71
⑯⑧⑦⑮ |①②③④|
⑭⑥⑤⑬ |⑤⑥⑦⑧|
⑫④③⑪ |⑨⑩⑪⑫|
⑩②①⑨ |⑬⑭⑮⑯|
72
口③③口 |①---|
口口口口 |--②-|
③②①③ |----|
口②①口 |③---|
73
口口口⑨ |①②③④|
①②⑤③ |⑤⑥⑦-|
口⑥⑧口 |⑧---|
④⑦⑨⑧ |⑨---|
74
③口②③ |①---|
口口口① |--②-|
口口口① |----|
口②口口 |③---|
75
⑩⑥口口 |①②③④|
③④⑦⑧ |⑤⑥⑦⑧|
口⑨②① |⑨---|
⑨⑩口⑤ |⑩---|
76
③②口③ |①---|
①口口口 |--②-|
①口口口 |----|
口口②口 |③---|
77
口口⑤口 |①②③④|
④⑧①口 |⑤⑥⑦⑧|
⑥口⑦③
②口口口

⑪⑫口⑬
口口⑭口
口⑮口口 |⑨⑩⑪⑫|
⑯口⑩⑨ |⑬⑭⑮⑯|
78
⑧口③口 |①---|
②④口① |--②-|
②口⑤① |--③④|
口⑥口⑦ |⑤⑥⑦⑧|
79
口③③① |①---|
口口①① |--②-|
②②口口 |----|
②③③口 |③---|


不確定度: 0

最終更新:2013年11月11日 13:26