Triple Journey -S-C-U EDITION-
Triumvirate

ADVANCED

Level: 9
BPM: 200
Notes: 591

1
口口口口 |----|
口口口口 |----|
口口口口 |----|
口口口口 |----|
2
口口口口 |----|
口口口口 |----|
口口口口 |----|
口口口口 |----|
3
③口口④ |①-②-|
⑤③口② |③---|
①口②⑥ |--④-|
口①口口 |⑤-⑥-|
4
口③②口 |--①-|
口口④口 |②---|
口⑤口口 |③-④-|
口口①口 |⑤---|
5
③口口④ |①-②-|
⑤③口② |③---|
①口②⑥ |--④-|
口①口口 |⑤-⑥-|
6
口③②口 |--①-|
口口④口 |②---|
口⑤口口 |③-④-|
口口①口 |⑤---|
7
③口口④ |①-②-|
⑤③口② |③---|
①口②⑥ |--④-|
口①口口 |⑤-⑥-|
8
口③②口 |--①-|
口口④口 |②---|
口⑤口口 |③-④-|
口口①口 |⑤---|
9
口口②③ |①--②|
口口口① |--③-|
口口③②
口口①口

⑥⑤口口
④口⑥⑥
⑤⑥口口 |④--⑤|
口④口口 |--⑥-|
10
口口口① |----|
①①口口 |----|
口口口① |--①-|
口口口口 |----|
11
②⑥口口 |①-②-|
口口⑧④ |③-④-|
①⑤口口 |⑤-⑥-|
口口⑦③ |⑦-⑧-|
12
口口口口 |----|
口口口口 |----|
口口口口 |----|
口口口口 |----|
13
口口⑧④ |①-②-|
②⑥口口 |③-④-|
口口⑦③ |⑤-⑥-|
①⑤口口 |⑦-⑧-|
14
⑥口口⑤ |----|
①②③④ |----|
⑥口口口 |①②③④|
口口口口 |⑤-⑥-|
15
口口口口 |--①-|
⑤⑥口口 |②-③-|
口④③② |--④-|
口口①口 |⑤-⑥-|
16
口口③② |--①-|
口口①口 |②-③-|
⑤⑥口口 |--④-|
口④口口 |⑤-⑥-|
17
口②①口 |----|
口④③口 |--①-|
口口口⑤ |②-③-|
口口⑤口 |④-⑤-|
18
口口口口 |----|
口口口口 |----|
口口口口 |----|
口口口口 |----|
19
口口口口 |①-②-|
口口口口 |③-④-|
③②⑥⑦ |--⑤-|
①④口⑤ |⑥-⑦-|
20
口口口口 |--①-|
口口口口 |--②-|
③④⑤⑥ |③-④-|
①②①口 |⑤-⑥-|
21
口口口口 |①-②-|
口口口口 |③-④-|
⑤⑦⑥口 |--⑤-|
①③②④ |⑥-⑦-|
22
口口口口 |--①-|
口口口口 |--②-|
④⑤⑥① |③-④-|
②③①口 |⑤-⑥-|
23
①②口① |①-②-|
③④⑦④ |③-④-|
⑤⑥口① |⑤-⑥-|
⑦⑧⑦④ |⑦-⑧-|
24
①②口② |①-②-|
③④⑦⑤ |③-④-|
⑤⑥口② |⑤-⑥-|
⑦⑧⑦⑤ |⑦-⑧-|
25
①⑥口① |①--②|
②口⑤③ |--③-|
③④②① |--④-|
口口口口 |⑤-⑥-|
26
口口口① |----|
口口口② |①②③-|
口口口③ |----|
口口口口 |----|
27
口口④② |①-②-|
⑦口口⑥ |③-④-|
⑤口口⑧ |⑤-⑥-|
①③口口 |⑦-⑧-|
28
①③⑧口 |①-②-|
口口⑥口 |③-④-|
口⑤口口 |⑤-⑥-|
口⑦④② |⑦-⑧-|
29
①口口② |①-②-|
③口⑧④ |③-④-|
⑦口口口 |⑤-⑥-|
⑤口⑧⑥ |⑦-⑧-|
30
③④口① |--①-|
口⑤口口 |--②-|
口⑥⑧① |③--④⑤⑥|
②⑦口口 |⑦-⑧-|
31
⑦口口⑥ |①-②-|
①口口④ |③-④-|
③口口② |⑤-⑥-|
⑤口口⑧ |⑦-⑧-|
32
口口口口 |①-②-|
⑤口口⑥ |③-④-|
⑦③④⑧ |⑤-⑥-|
口①②口 |⑦-⑧-|
33
口①①口 |①---|
口口口④ |----|
②③口口 |--②-|
口口口④ |③-④-|
34
口口①口 |----|
口口②口 |①②③-|
口口③口 |----|
口口口口 |----|
35
①口口② |①-②-|
③⑦口④ |③-④-|
口口⑥口 |--⑤-|
口⑤口口 |⑥-⑦-|
36
②④①口 |--①-|
口口口口 |②---|
口口口⑤ |③--④|
口③口口 |--⑤-|
37
口口口口 |①-②-|
口口③④ |③-④-|
①②口口
口口口口

⑤口口口
⑥口口口
⑦口口口 |--⑤-|
口口口口 |⑥-⑦-|
38
口口口③ |--①-|
口④⑤② |②-③-|
口口口① |--④-|
口口口口 |⑤---|
39
口⑥口口 |①---|
口⑤口口 |②-③-|
①④口① |--④-|
口②③口 |⑤-⑥-|
40
③口③口 |----|
口口②① |①---|
口口口口 |②---|
②口口① |③---|
41
⑤③口① |①---|
口口口口 |②-③-|
口口口口 |--④-|
④②口口 |⑤---|
42
口口②④ |①-②-|
⑤⑤⑤⑤ |--③-|
口口口口 |④---|
口口①③ |⑤---|
43
口口口口 |①-②-|
口口口口 |③-④-|
①②③④
口口口口

⑤口口口
⑥口口口
⑦口口口 |--⑤-|
口口口口 |⑥-⑦-|
44
口③口口 |--①-|
口口口口 |②---|
⑤口口④ |③--④|
口②①口 |--⑤-|
45
口口口口 |①-②-|
①②③④ |③-④-|
口口口口
口口口口

口⑦口口
⑦口口口
⑥口口口 |--⑤-|
⑤口口口 |⑥-⑦-|
46
口口⑤① |--①-|
口口①口 |②-③-|
口口口口 |--④-|
口③④② |⑤---|
47
③⑤口口 |①---|
口口口口 |②-③-|
口①①口 |--④-|
②④口口 |⑤---|
48
口口②④ |①-②-|
口⑤⑤口 |--③-|
口口口口 |④---|
口口①③ |⑤---|
49
①①③③ |①-②-|
口口口口 |--③-|
②②口口
口口口口

⑤⑤口口
口口口口
口口口口 |--④-|
口口④④ |--⑤-|
50
口口口口 |--①-|
③④⑤⑥ |②---|
②②口口 |③-④-|
①①口口 |⑤-⑥-|
51
⑤⑤②② |①---|
④口口口 |②-③-|
口口③⑥ |-④--|
口口①① |⑤-⑥-|
52
口⑥⑦口 |①--②|
⑤③④② |--③-|
口①口口 |-④--|
⑤③④② |⑤-⑥⑦|
53
④口口① |①---|
口口口口 |②-③-|
口②③⑥ |-④--|
口⑤口口 |⑤-⑥-|
54
⑤③④口 |①--②|
①⑦⑥② |--③-|
⑤③④口 |-④--|
①口口② |⑤-⑥⑦|
55
口口口② |①--②|
①口口口 |--③-|
口口口口
③口口口

口口口口
⑧⑦⑥⑤
口口口④ |-④--|
口口口口 |⑤⑥⑦⑧|
56
①口②② |①--②|
口口口口 |--③-|
③③⑥口 |-④--|
⑤⑤④④ |⑤-⑥-|
57
①①③③ |①---|
③③①① |②---|
②④口口 |③---|
口口口口 |④---|
58
⑤⑤④④ |①-②-|
⑥⑥③③ |③-④-|
⑦⑦②② |⑤-⑥-|
⑧⑧①① |⑦-⑧-|
59
⑤⑤②② |①---|
④口口口 |②-③-|
口口③⑥ |-④--|
口口①① |⑤-⑥-|
60
口⑥⑦口 |①--②|
⑤③④② |--③-|
口①口口 |-④--|
⑤③④② |⑤-⑥⑦|
61
④口口① |①---|
口口口口 |②-③-|
口②③⑥ |-④--|
口⑤口口 |⑤-⑥-|
62
⑤③④口 |①--②|
①⑦⑥② |--③-|
⑤③④口 |-④--|
①口口② |⑤-⑥⑦|
63
口③口② |①-②-|
①口口④ |③-④-|
口③口②
口口口④

口口口口
⑥⑥⑥口
口口口口 |--⑤-|
⑤⑤⑤口 |--⑥-|
64
口口口口 |----|
口口口口 |----|
口口口口 |----|
口口口口 |----|
65
①①①① |①---|
②②②② |②---|
③③③③ |③---|
④④④④ |④---|
66
①①①① |①---|
②②②② |②---|
③③③③ |③---|
④④④④ |④---|
67
①②口口 |①-②-|
③④口口 |③-④-|
⑤⑥口口 |⑤-⑥-|
⑦⑧口口 |⑦-⑧-|
68
口口⑦⑧ |①-②-|
口口⑤⑥ |③-④-|
口口③④ |⑤-⑥-|
口口①② |⑦-⑧-|
69
口口口口 |①-②-|
②④⑥⑧ |③-④-|
①③⑤⑦ |⑤-⑥-|
口口口口 |⑦-⑧-|
70
②④⑥⑧ |①-②-|
口口口口 |③-④-|
口口口口 |⑤-⑥-|
①③⑤⑦ |⑦-⑧-|
71
口口口口 |①-②-|
②⑥⑧④ |③-④-|
①⑤⑦③ |⑤-⑥-|
口口口口 |⑦-⑧-|
72
口口口口 |----|
口口口口 |----|
口口口口 |----|
口口口口 |----|
73
口口口口 |①-②-|
②⑥⑧④ |③-④-|
①⑤⑦③ |⑤-⑥-|
口口口口 |⑦-⑧-|
74
⑥口口口 |----|
口口口⑤ |----|
①②③④ |①②③④|
口口口口 |⑤-⑥-|
75
⑦⑧⑨① |--①②|
口②③口 |③-④-|
④口口口 |--⑤⑥|
口口⑤⑥ |⑦⑧⑨-|
76
⑧⑨⑩口 |--①②|
③④⑤口 |③④⑤-|
口口①② |--⑥⑦|
口口⑥⑦ |⑧⑨⑩-|
77
⑦⑧⑨口 |----|
③④⑤⑥ |--①②|
口口①② |③④⑤⑥|
口口口口 |⑦⑧⑨-|
78
口口口口 |----|
口口口口 |----|
口口口口 |----|
口口口口 |----|
79
①①①口 |①---|
口②口③ |--②-|
口②口③ |----|
口口口口 |③---|
80
口口口口 |--①-|
口口口口 |----|
口口口口 |②---|
口口②① |----|


不確定度: 0

最終更新:2013年11月11日 13:20