凛として咲く花の如く ~ひなビタ♪ edition~
日向美ビタースイーツ♪

EXTREME

Level: 9
BPM: 163
Notes: 932

1
口口口口 |----|
口口口口 |----|
口口口口 |----|
口口口口 |----|
2
⑦⑤①① |①-②③|
②口⑧⑧ |④-⑤-|
⑨口口③ |⑥-⑦-|
④④⑥⑥ |⑧-⑨-|
3
口口①口 |①-②-|
②口口口 |③-④-|
口④口③
口口口口

⑤⑦⑦⑤
口口口口
⑥口⑥口 |⑤-⑥-|
口口口口 |⑦---|
4
⑬⑭⑮⑯ |①②③④|
⑤⑥⑦⑧ |⑤⑥⑦⑧|
⑨⑩⑪⑫ |⑨⑩⑪⑫|
①②③④ |⑬⑭⑮⑯|
5
⑤口口⑦ |①-②-|
①⑥⑧③ |③-④-|
口⑤⑦口 |⑤-⑥-|
②①③④ |⑦-⑧-|
6
⑥①①⑤ |①-②-|
③口口④ |③-④-|
③⑦⑦④ |⑤-⑥-|
⑤②②⑥ |⑦---|
7
口①③口 |①-②-|
②⑤⑦④ |③-④-|
①口口③ |⑤-⑥-|
⑤⑥⑧⑦ |⑦-⑧-|
8
口⑤⑥口 |①-②③|
④口口④ |④-⑤⑥|
①②③①
口口口口

⑦口口⑦
口⑧⑧口
⑨口口⑨ |⑦-⑧-|
口口口口 |⑨---|
9
⑤口口⑦ |①-②-|
①⑥⑧③ |③-④-|
口⑤⑦口 |⑤-⑥-|
②①③④ |⑦-⑧-|
10
⑥①①⑤ |①-②-|
③口口④ |③-④-|
③⑦⑦④ |⑤-⑥-|
⑤②②⑥ |⑦---|
11
口①③口 |①-②-|
②⑤⑦④ |③-④-|
①口口③ |⑤-⑥-|
⑤⑥⑧⑦ |⑦-⑧-|
12
①⑤⑥① |①-②③|
④⑨口④ |④-⑤⑥|
口②③口 |⑦---|
⑦口⑧⑦ |⑧-⑨-|
13
口口口① |①---|
口口③口 |②-③-|
口口口口
②口口口

④口口⑤
口口口口
口⑥口口 |④---|
口口口口 |⑤-⑥-|
14
口④①口 |①---|
口②⑤① |②---|
③口②口 |③---|
口③口口 |④-⑤-|
15
口口口口 |①---|
口口口口 |--②-|
⑤③②口 |③---|
①口口④ |④-⑤-|
16
口口口① |①---|
口③口口 |----|
口口口口 |----|
口口②口 |②-③-|
17
④口①口 |①---|
口口③⑤ |②-③-|
⑥②口口 |④-⑤-|
口口口⑦ |⑥-⑦-|
18
口①口口 |①---|
①口②口 |②---|
口②口③ |③---|
口口③口 |----|
19
口口②口 |①---|
口①口③ |②-③-|
③口①口
口②口口

⑤口口口
④⑤⑥口
口⑥口④ |④---|
口口口口 |⑤-⑥-|
20
⑥口口口 |①---|
②口口③ |----|
④口①⑤ |②③④⑤|
口口⑦① |⑥-⑦-|
21
口⑤⑤① |①-②③|
⑦②口⑧ |④-⑤-|
口口③⑨ |⑥--⑦|
⑥④口⑥ |⑧-⑨-|
22
①⑤⑤口 |①-②③|
口口②口 |④-⑤-|
口③口口
口口④口

⑪口口⑩
口⑦口口
口口⑧口 |⑥⑦⑧⑨|
⑥⑨口⑥ |⑩-⑪-|
23
⑥③③口 |①-②-|
①⑦⑦① |③-④-|
口⑤⑤口 |⑤-⑥-|
④口②⑧ |⑦-⑧-|
24
③②①③ |①---|
②④⑤① |②---|
①③③② |③-④⑤|
⑥①②⑦ |⑥-⑦-|
25
⑤⑥⑥⑤ |①-②-|
①⑥口⑥ |③-④-|
⑥⑥④③ |⑤---|
⑥⑥②口 |⑥---|
26
⑤⑥⑥⑤ |①-②-|
②⑥①⑥ |③-④-|
⑥⑥口③ |⑤---|
⑥⑥④口 |⑥---|
27
②口口② |①---|
①口①口 |②---|
③⑤③⑤ |③---|
④口④口 |④-⑤-|
28
①⑨⑨④ |①②③④|
⑤口②⑧ |⑤⑥⑦⑧|
⑦口⑥口 |⑨---|
口③口口 |----|
29
口口口口 |①---|
①口①② |②-③-|
口口口口
①③①口

⑥④⑥④
口口口口
口④口④ |④---|
口口⑤口 |⑤-⑥-|
30
口口口口 |①-②-|
口①③① |③-④-|
②④②口
口口口口

口⑦⑥口
⑦口口⑥
口口口口 |⑤---|
口口口⑤ |⑥-⑦-|
31
③⑦⑥② |①---|
口③②口 |②-③-|
⑤⑦⑥④ |④-⑤-|
⑤①①④ |⑥-⑦-|
32
②口口② |①---|
口口口口 |②-③-|
③口口③
口①①口

口口⑥口
口口口口
口口口口 |④---|
④⑤口④ |⑤-⑥-|
33
③①口口 |①---|
①口①口 |②-③-|
口①口口
口口口②

口口口⑤
口④口口
④⑥④口 |④---|
口④口口 |⑤-⑥-|
34
口口③口 |①-②-|
口④口③ |③-④-|
④口口口
②口①口

口⑥口口
⑥口口口
口口⑤⑦ |⑤---|
口口⑦⑤ |⑥-⑦-|
35
口口②① |①---|
口口口② |②-③-|
③口口口
①③口口

④⑤口⑤
口口口口
口口口口 |④---|
⑥口⑥④ |⑤-⑥-|
36
口口口口 |①---|
②③①口 |②---|
口①口④ |③---|
口口口口 |④---|
37
口①①⑥ |①②③④|
⑦口口④ |⑤⑥⑦⑧|
③口②口
口⑤口⑧

⑪口口口
口⑬⑬口
口⑭⑭⑩ |⑨⑩⑪⑫|
⑨口⑫口 |⑬-⑭-|
38
口口①口 |①---|
口口③① |②---|
①口口口 |③---|
②①口④ |④---|
39
口口②口 |①---|
③口口口 |②---|
口①口口 |③---|
口口口口 |----|
40
口口口口 |①---|
口口③口 |②---|
④①口口 |③---|
口口口② |④---|
41
口①口口 |①---|
③口口② |②---|
口⑤④口 |③④⑤⑥|
口⑦⑥口 |⑦---|
42
⑪⑨③② |①-②③|
④④⑥⑤ |④-⑤⑥|
⑦⑦⑩① |⑦-⑧⑨|
①口口⑧ |⑩-⑪-|
43
口口口① |①---|
口②口口 |②---|
口口口口
口口口口

⑤③③⑤
口口口口
口④④口 |③-④-|
口口口口 |⑤---|
44
⑬⑭⑮⑯ |①②③④|
⑤⑥⑦⑧ |⑤⑥⑦⑧|
⑨⑩⑪⑫ |⑨⑩⑪⑫|
①②③④ |⑬⑭⑮⑯|
45
⑤口口⑦ |①-②-|
①⑥⑧③ |③-④-|
口⑤⑦口 |⑤-⑥-|
②①③④ |⑦-⑧-|
46
⑥①①⑤ |①-②-|
③口口④ |③-④-|
③⑦⑦④ |⑤-⑥-|
⑤②②⑥ |⑦---|
47
口①③口 |①-②-|
②⑤⑦④ |③-④-|
①口口③ |⑤-⑥-|
⑤⑥⑧⑦ |⑦-⑧-|
48
口⑤⑥口 |①-②③|
④口口④ |④-⑤⑥|
①②③①
口口口口

⑦口口⑦
口口口口
口口口⑧ |⑦---|
口口口口 |⑧---|
49
⑤口口⑦ |①-②-|
①⑥⑧③ |③-④-|
口⑤⑦口 |⑤-⑥-|
②①③④ |⑦-⑧-|
50
⑥①①⑤ |①-②-|
③口口④ |③-④-|
③⑦⑦④ |⑤-⑥-|
⑤②②⑥ |⑦---|
51
口①③口 |①-②-|
②⑤⑦④ |③-④-|
①口口③ |⑤-⑥-|
⑤⑥⑧⑦ |⑦-⑧-|
52
①⑤⑥① |①-②③|
④口口④ |④-⑤⑥|
口②③口 |⑦---|
⑦口口⑦ |----|
53
口④口口 |①-②-|
口口口③ |③-④-|
口口②口 |----|
口①口口 |----|
54
口口④口 |①-②-|
③口口口 |③-④-|
口②口口 |----|
口口①口 |----|
55
口口口口 |①---|
①口口① |----|
②口口② |②---|
口口口口 |----|
56
口口口口 |①---|
口口口口 |----|
口口口口 |----|
①口口① |----|
57
⑤⑬⑨① |①②③④|
⑥⑭⑩② |⑤⑥⑦⑧|
⑦⑮⑪③ |⑨⑩⑪⑫|
⑧⑯⑫④ |⑬⑭⑮⑯|
58
②⑩⑨① |①②③④|
④⑫⑪③ |⑤⑥⑦⑧|
⑥⑭⑬⑤ |⑨⑩⑪⑫|
⑧⑯⑮⑦ |⑬⑭⑮⑯|
59
④⑧⑤① |①②③④|
②口口⑦ |⑤⑥⑦⑧|
口口口③
⑥口口口

口口口⑮
⑯⑫⑨口
⑩口口口 |⑨⑩⑪⑫|
口⑭⑬⑪ |⑬⑭⑮⑯|
60
④⑧③口 |①②③④|
口口口⑦ |⑤⑥⑦⑧|
口②⑤① |⑨---|
⑥口口⑨ |----|
61
口④④① |①-②-|
口口②口 |③-④-|
口口口口
口③口口

口口口⑥
口口口口
⑦口口口 |⑤---|
⑤口口⑤ |⑥-⑦-|
62
①④④口 |①-②-|
②口口口 |③-④-|
口口口口
口口③口

口口口口
⑫⑪⑩⑨
⑧⑦⑥⑤ |⑤⑥⑦⑧|
口口口口 |⑨⑩⑪⑫|
63
⑥③③① |①-②-|
口⑦⑦口 |③-④-|
口⑤⑤口 |⑤-⑥-|
④口②⑧ |⑦-⑧-|
64
③②①③ |①---|
②④⑤① |②---|
①③③② |③-④⑤|
⑥①②⑦ |⑥-⑦-|
65
⑤⑥⑥⑤ |①-②-|
①⑥口⑥ |③-④-|
⑥⑥④③ |⑤---|
⑥⑥②口 |⑥---|
66
⑤⑥⑥⑤ |①-②-|
②⑥①⑥ |③-④-|
⑥⑥口③ |⑤---|
⑥⑥④口 |⑥---|
67
②口口② |①---|
①口①口 |②---|
③⑤③⑤ |③---|
④口④口 |④-⑤-|
68
①⑨⑨④ |①②③④|
⑤口②⑧ |⑤⑥⑦⑧|
⑦口⑥口 |⑨---|
口③口口 |----|
69
口口口口 |①---|
①口①② |②-③-|
口口口口
①③①口

⑥④⑥④
口口口口
口④口④ |④---|
口口⑤口 |⑤-⑥-|
70
口口口口 |①-②-|
口①③① |③-④-|
②④②口
口口口口

口⑦⑥口
⑦口口⑥
口口口口 |⑤---|
口口口⑤ |⑥-⑦-|
71
③⑦⑥② |①---|
口③②口 |②-③-|
⑤⑦⑥④ |④-⑤-|
⑤①①④ |⑥-⑦-|
72
②口口② |①---|
口口口口 |②-③-|
③口口③
口①①口

口口⑥口
口口口口
口口口口 |④---|
④⑤口④ |⑤-⑥-|
73
③①口口 |①---|
①口①口 |②-③-|
口①口口
口口口②

口口口⑤
口④口口
④⑥④口 |④---|
口④口口 |⑤-⑥-|
74
口口③口 |①-②-|
口④口③ |③-④-|
④口口口
②口①口

口⑥口口
⑥口口口
口口⑤⑦ |⑤---|
口口⑦⑤ |⑥-⑦-|
75
口口②① |①---|
口口口② |②-③-|
③口口口
①③口口

④⑤口⑤
口口口口
口口口口 |④---|
⑥口⑥④ |⑤-⑥-|
76
⑨口⑨口 |①②③④|
③⑦②⑥ |⑤⑥⑦⑧|
口①⑧④ |⑨---|
⑩⑤⑩口 |⑩---|
77
口①口① |①---|
②口②口 |②-③-|
口口口口
口③口③

④⑤④⑤
口⑥口⑥
口口口口 |④---|
口口口口 |⑤-⑥-|
78
⑥口⑥口 |①-②-|
④⑦③⑦ |③-④-|
①③①④ |⑤---|
②⑤②⑤ |⑥-⑦-|
79
口②口② |①---|
③口③口 |②-③-|
①口①口
口口口口

口口口口
口⑦口⑦
⑥④⑥④ |④-⑤-|
⑤口⑤口 |⑥-⑦-|
80
②口①口 |①-②-|
④口③口 |③-④-|
口③口④
口①口②

口⑥⑥⑤
口⑦口⑦
口口口口 |⑤---|
⑤口口口 |⑥-⑦-|
81
②口口② |①---|
③口③口 |②-③-|
①口①口
口口口口

口口⑤口
口⑥口⑤
口④⑥④ |④---|
口口口口 |⑤-⑥-|
82
②③口② |①-②-|
③口④口 |③-④-|
①④口口
口①口口

口口口口
口⑥口⑥
⑦口⑦⑤ |⑤---|
口口⑤口 |⑥-⑦-|
83
口口口口 |①---|
②口②口 |②-③-|
口③口③
口①口①

⑥口口口
口口口⑤
⑥口口口 |④---|
④口④⑤ |⑤-⑥-|
84
口口口口 |①---|
口①①口 |----|
口口口口 |----|
口口口口 |----|
85
③③②② |①---|
①口口① |----|
①口口① |----|
②②③③ |②-③-|
86
口口口口 |①---|
口①①口 |----|
口①①口 |----|
口口口口 |----|


不確定度: 0

最終更新:2013年12月15日 00:49