Dragon Blade
Kozo Nakamura

EXTREME

Level: 10
BPM: 120
Notes: 914

1
口口口口 |----|
口口口口 |----|
口口口口 |----|
口口口口 |----|
2
①⑩④⑦ |①②③④|
口②⑧口 |--⑤⑥|
⑩口③④ |--⑦⑧|
⑨⑥⑤口 |⑨⑩--|
3
①⑩④口 |①②③④|
口②⑦口 |--⑤⑥|
⑩⑧口④ |--⑦⑧|
⑨⑥⑤③ |⑨⑩--|
4
①⑩④⑦ |①②③④|
口②⑧口 |--⑤⑥|
⑩口③④ |--⑦⑧|
⑨⑥⑤口 |⑨⑩--|
5
①口④口 |①②③④|
口②口口 |--⑤⑥|
口口口④
口⑥⑤③

⑫口⑬⑪
口口口口
⑦⑧⑨⑩ |---⑦⑧⑨|
口口口口 |⑩⑪⑫⑬|
6
口④口口 |①-②-|
②②口口 |③-④-|
③④口口
①口①③

⑤口口口
⑧⑧⑥口
口口⑦⑥ |⑤-⑥-|
口⑤⑦口 |⑦-⑧-|
7
③②口④ |①-②-|
口口③① |③-④-|
口①口口
②④口口

⑧⑦⑥口
⑤口口⑦
⑧口⑤⑥ |⑤-⑥-|
口口⑧⑧ |⑦-⑧-|
8
口口③④ |①-②-|
②②①口 |③-④-|
口①口④
口③口口

⑤口⑧口
口口口⑤
⑦口⑧口 |⑤-⑥-|
⑥口⑦⑥ |⑦-⑧-|
9
口③口口 |①-②-|
口①②口 |③-④-|
口②口①
④③④口

口口口⑤
⑧⑥口⑦
⑥口口⑨ |⑤-⑥-|
⑩口口⑤ |⑦⑧⑨⑩|
10
④②①④ |①-②-|
口口口口 |③④--|
口②①口
口③③口

口⑨⑨口
⑤⑥⑦口
口口口口 |⑤⑥⑦-|
⑧口口⑧ |⑧⑨--|
11
⑦口口⑤ |①②③④|
③口口① |⑤⑥⑦⑧|
口④②口
⑧口口⑥

口⑨⑪口
⑬口口口
⑩口口⑫ |-⑨⑩-|
口⑩⑫口 |⑪⑫-⑬|
12
口⑤⑦口 |①②③④|
口③②① |⑤⑥⑦⑧|
⑧④⑥口
⑧口口口

⑨口口口
⑪口口⑪
口口口⑩ |-⑨⑩-|
口⑪⑪⑩ |⑪---|
13
口口口口 |①②③④|
口④⑧口 |⑤⑥⑦⑧|
③②⑥⑦
①口口⑤

⑫⑪⑮⑯
口口口口
口口口口 |⑨⑩⑪⑫|
⑩⑨⑬⑭ |⑬⑭⑮⑯|
14
⑤⑤口口 |①②-③|
①口②③ |-④-⑤|
口口②③
④④口口

口口口口
口口口⑧
⑦⑦口⑧ |-⑥-⑦|
口口⑥⑥ |-⑧--|
15
口⑦口⑤ |①②③④|
①口③口 |⑤⑥⑦⑧|
口口口口
⑧②⑥④

⑩口⑨口
⑩口口口
口⑬口⑫ |-⑨⑩-|
口⑪口⑫ |⑪⑫-⑬|
16
口③口① |①②③④|
④口②口 |⑤⑥⑦⑧|
⑤口⑦口
口⑥口⑧

⑨口⑪⑪
口口口⑩
口口口⑩ |-⑨⑩-|
口口口口 |⑪---|
17
口④⑧⑧ |①②③④|
①口⑥⑤ |⑤⑥⑦⑧|
口③口口
②⑦口口

口⑫口口
⑨⑩⑮口
口⑬口⑪ |-⑨⑩⑪|
口口⑭口 |⑫⑬⑭⑮|
18
⑫⑪⑩④ |①②③④⑤⑥|
③⑦口⑤ |⑦⑧⑨⑩⑪⑫|
口口②⑥
①⑨口⑧

口口口⑲
⑱⑳⑬口
⑰⑭⑮A |⑬⑭⑮⑯⑰⑱|
⑯BCD |⑲⑳ABCD|
19
①①口口 |①---|
口⑤②口 |②③④⑤|
口④③口
口口口口

⑥口口⑨
口口口⑩
⑧口⑪口 |--⑥⑦|
⑦口口口 |⑧⑨⑩⑪|
20
口口②③ |①--②|
①①口口 |--③-|
口口口②
③口口口

口口口口
④口口⑨
⑤口口⑧ |--④⑤|
口⑥⑦口 |⑥⑦⑧⑨|
21
②①①口 |①-②③|
⑤⑥口口 |④⑤⑥⑦|
⑦③口口
④口口口

口口⑩⑨
口口⑫⑭
口口口⑬ |⑧-⑨⑩|
口⑧⑧⑪ |⑪⑫⑬⑭|
22
⑥⑤口口 |①-②③|
③口口口 |④⑤⑥⑦|
⑦①①口
②④口口

口口口⑪
口⑧⑧⑭
口口⑨⑩ |⑧-⑨⑩|
口口⑬⑫ |⑪⑫⑬⑭|
23
口①①口 |①---|
口⑤②口 |②③④⑤|
口④③口
口口口口

口⑥⑦⑧
⑨口口口
⑨口口口 |-⑥-⑦|
口⑥⑦⑧ |-⑧-⑨|
24
口口③口 |①--②|
口②④① |---③④⑤|
口②⑤①
口口口口

⑨口口⑩
⑪口口⑧
⑦口口⑫ |⑥⑦⑧⑨|
⑬口⑥口 |⑩⑪⑫⑬|
25
口④①口 |①-②③|
口④①口 |④-⑤⑥|
口③口⑥
口②口⑤

⑩口口⑦
⑩口口⑦
⑨口⑪口 |⑦-⑧⑨|
⑧⑫口口 |⑩-⑪⑫|
26
⑤口①③ |①②-③|
口④⑥② |④-⑤⑥|
口④⑥②
⑤口①③

口⑦口⑨
⑧口口⑩
⑧口口⑪ |-⑦⑧-|
口⑦⑬⑫ |⑨-⑩-⑪-⑫--⑬--|
27
③③口口 |①②-③|
⑤①②⑥ |④-⑤⑥|
⑤①②⑥
④④口口

⑩⑨⑧⑦
口口口口
口口口口 |---⑦⑧⑨|
口⑬⑫⑪ |⑩⑪⑫⑬|
28
口口口口 |①②-③|
④⑥①① |④⑤⑥⑦|
⑦⑤②②
③口口口

口⑫⑫⑧
口口口⑨
口口口⑩ |⑧⑨⑩⑪|
口⑬⑬⑪ |⑫⑬--|
29
口口口③ |①②-③|
①①⑤⑦ |④⑤⑥⑦|
②②⑥④
口口口口

⑧⑫⑫口
⑨口口口
⑩口口口 |⑧⑨⑩⑪|
⑪⑫⑫口 |⑫---|
30
⑧⑤⑤⑧ |①②--|
③③①① |③④--|
④④②② |⑤⑥--|
⑦⑥⑥⑦ |⑦⑧--|
31
口⑤⑤口 |①②③④|
②①①口 |⑤⑥⑦⑧|
口③③④
⑥⑦⑦⑧

⑨口口⑩
口口⑬⑫
⑪口⑬口 |⑨⑩⑪⑫|
口口口口 |⑬---|
32
口⑨④口 |①②③④⑤⑥|
①⑤口⑩ |⑦⑧⑨⑩⑪⑫|
⑪③⑧⑥
⑦口⑫②

⑬口⑳⑯
⑰A⑭D
口⑲口B |⑬⑭⑮⑯⑰⑱|
C⑮口⑱ |⑲⑳ABCD|
33
③①⑫⑧ |①②③④⑤⑥|
⑨口⑥口 |⑦⑧⑨⑩⑪⑫|
⑤⑪②口
口⑦④⑩

⑰⑯口口
口⑬⑲⑱
口口⑮⑭ |⑬⑭⑮⑯|
口⑳口口 |⑰⑱⑲⑳|
34
⑨⑪⑥② |①②③④⑤⑥|
口③口⑩ |⑦⑧⑨⑩⑪⑫|
⑤⑦⑫口
①口⑧④

口口B⑱
⑬⑲⑯口
AC口⑭ |⑬⑭⑮⑯⑰⑱|
⑮⑰D⑳ |⑲⑳ABCD|
35
①③口⑩ |①②③④⑤⑥|
⑤⑪⑥② |⑦⑧⑨⑩⑪⑫|
口口④⑧
⑦⑨口⑫

口⑮⑭口
⑰口口⑯
⑬⑲⑱口 |⑬⑭⑮⑯|
口口⑳口 |⑰⑱⑲⑳|
36
⑤⑦口② |①---|
口口口口 |----|
④口⑥③ |②③④⑤|
①①口口 |-⑥⑦-|
37
口口①口 |①---|
口口口口 |----|
口①口口
口口口口

②②④②
口口②④
③④③③ |②--③|
④③口口 |--④-|
38
口口④④ |①---|
①①③③ |----|
口口②② |②--③|
口口①① |--④-|
39
①①口口 |①---|
口口口口 |----|
口口口口
口口①①

口③②口
口⑤④口
口⑦⑥口 |②③④⑤|
口⑨⑧口 |⑥⑦⑧⑨|
40
②④④① |①-②-|
②口口① |③④--|
口口口口
③口口③

⑨口口⑨
口口⑤口
口⑥⑦口 |⑤⑥⑦-|
口⑧⑧口 |⑧⑨--|
41
口口口口 |①--②|
⑥口口① |--③-|
⑤口口② |--④⑤|
④口口③ |⑥---|
42
⑦⑤口① |①②③④|
口口②口 |⑤⑥⑦⑧|
口口口③
⑧⑥④口

口口⑪⑨
⑫⑩口口
⑫⑩口口 |-⑨⑩-|
口⑬口口 |⑪⑫-⑬|
43
口口⑦⑤ |①②③④|
口口②① |⑤⑥⑦⑧|
口口④③
口口⑧⑥

⑨口口口
⑪⑪口口
口口⑪⑪ |-⑨⑩-|
⑩⑩口口 |⑪---|
44
口口⑧⑥ |①②③④|
口口口⑤ |⑤⑥⑦⑧|
③④⑦口
口口②①

⑫⑩口口
⑪⑯⑭口
口⑮口口 |⑨⑩⑪⑫|
口⑨⑬口 |⑬⑭⑮⑯|
45
口口⑤① |①②-③|
④口口口 |-④-⑤|
②口⑤③
②④口③

⑦口口口
口口口⑥
口⑦口口 |-⑥-⑦|
⑧口⑥⑧ |-⑧--|
46
口⑦口⑤ |①②③④|
口②口④ |⑤⑥⑦⑧|
①口③口
⑧口⑥口

⑨口⑪口
口⑩口⑫
口⑩口⑫ |-⑨⑩-|
口⑬口口 |⑪⑫-⑬|
47
口口口① |①②③④|
③口②口 |⑤⑥⑦⑧|
口④⑤口
⑦口⑧⑥

口⑨⑪⑪
口口口口
⑩口口口 |-⑨⑩-|
口⑩口口 |⑪---|
48
口④⑧⑧ |①②③④|
①口⑥⑤ |⑤⑥⑦⑧|
口③口口
②⑦口口

⑮⑫口口
⑨⑩口口
口⑬口⑭ |-⑨⑩⑪|
口口口⑪ |⑫⑬⑭⑮|
49
口口②⑧ |①②③④⑤⑥|
口口①⑦ |⑦⑧⑨⑩⑪⑫|
⑨⑩⑪⑫
③④⑤⑥

⑭⑬⑯⑰
⑭⑬⑯⑰
口口口口 |⑬-⑭-⑮-|
⑮⑮⑱⑱ |⑯-⑰-⑱-|
50
③②⑤⑥ |①-②-③-|
③②⑤⑥ |④-⑤-⑥-|
①④①④ |----|
口口口口 |----|
51
口②口① |①---|
⑤①①口 |②③④⑤|
口①①③
①④口口

⑧口⑥⑫
口⑬⑪口
口口⑩口 |⑥⑦⑧⑨|
⑨口⑦口 |⑩⑪⑫⑬|
52
⑦口⑤口 |①②③④|
口口口③ |⑤⑥⑦⑧|
口④⑥①
⑧②口口

口⑩口⑫
⑨⑮⑪⑯
口口口⑬ |⑨⑩⑪⑫|
口⑭口口 |⑬⑭⑮⑯|
53
口②口口 |①---|
②口口口 |②③-④|
①④④③
①口③口

口⑩⑥⑧
口⑤⑤⑥
⑦口口口 |⑤-⑥⑦|
⑨⑦口口 |-⑧⑨⑩|
54
②口⑤口 |①②③④⑤⑥|
⑫④⑨⑦ |⑦⑧⑨⑩⑪⑫|
⑧⑩口①
口⑥③⑪

口口口⑬
口⑭口⑮
⑮口⑮口 |⑬--⑭|
⑭口口口 |--⑮-|
55
②①①⑤ |①---|
口口口口 |②③④⑤|
口口口④
③①①口

⑫口⑪口
⑥口⑦口
口⑩口口 |⑥⑦⑧⑨|
⑬⑨口⑧ |⑩⑪⑫⑬|
56
口口口⑤ |①②③④|
②口③口 |⑤⑥⑦⑧|
口⑧①口
口⑥⑦④

口⑨⑩口
⑬⑭口⑪
口口⑫口 |⑨⑩⑪⑫|
⑯口口⑮ |⑬⑭⑮⑯|
57
口②②① |①---|
口④④口 |②③-④|
口口口①
口③③口

⑩口口口
⑤口口⑤
⑥⑦⑦⑥ |⑤-⑥⑦|
口口⑨⑧ |-⑧⑨⑩|
58
口①①⑧ |①②③④|
③⑤⑤口 |⑤⑥⑦⑧|
口口口⑥
②④口⑦

⑪口口口
口口口⑭
⑩⑨⑨⑮ |⑨⑩⑪⑫|
⑫⑬⑬⑯ |⑬⑭⑮⑯|
59
④①①③ |①②③④|
②⑤⑤⑧ |⑤⑥⑦⑧|
⑦⑨⑨口 |⑨---|
口口⑥口 |----|


不確定度: 0

最終更新:2013年10月24日 23:18