万華鏡
Jimmy Weckl

EXTREME

Level: 9
BPM: 138
Notes: 650

1
口口口口 |----|
口口口口 |----|
口口口口 |----|
口口口口 |----|
2
②口⑪① |--①②|
④⑫③口 |③④⑤⑥|
口⑦⑥⑤ |⑦⑧⑨⑩|
⑨⑩⑬⑧ |-⑪⑫⑬|
3
①③口① |①-②-|
③口⑤口 |③-④⑤|
⑥口②口 |--⑥-|
④口⑧⑦ |⑦-⑧-|
4
口口口口 |①--②|
口①口① |--③-|
口②口②
口③口③

口口⑥口
⑤口口⑥
口口④口 |--④-|
口口口口 |⑤-⑥-|
5
口口口口 |①-②-|
口③口口 |③-④⑤|
①④⑤口
口口②口

口⑥口口
⑥口⑦口
⑦口口口 |--⑥-|
⑧口⑧口 |⑦-⑧-|
6
口口口口 |①--②|
口①口① |--③-|
口②口② |----|
口③口③ |----|
7
⑨⑤⑥④ |--①②|
⑨②③⑧ |③④-⑤|
①⑦口⑧ |⑥-⑦-|
⑦口口口 |⑧-⑨-|
8
口④口④ |①②-③|
口②①口 |-④-⑤|
⑤口⑤口
口口③口

口口⑨口
⑥⑫⑪⑦
口⑧口口 |-⑥⑦⑧|
⑩口口口 |⑨⑩⑪⑫|
9
口⑦口⑨ |①②③-|
⑧口口④ |④⑤⑥-|
⑤口③口 |⑦--⑧|
⑩②①⑥ |-⑨⑩-|
10
④④⑤口 |①--②|
口①口① |--③-|
⑧②⑨② |④--⑤|
⑥③⑦③ |⑥⑦⑧⑨|
11
⑥⑤⑥口 |①-②-|
①④③④ |③-④-|
口①口口 |⑤-⑥-|
口②⑦② |⑦-|
12
口口口口 |①-②-|
②④口口 |③-④-|
④①③① |⑤-|
⑤③口口
13
⑤⑤④④ |①-②-|
口口②④ |③---|
口③⑥口 |④-⑤-|
口口③① |⑥-|
14
口口④口 |①-②-|
口口③口 |③-④-|
③②口①
口①口口
15
口口口① |①-②-|
②①口③ |③-④-|
口口口口 |⑤-|
⑤④④口
16
口口口口 |①-②-|
④口口口 |③-④-|
③②④②
口口口①

⑦⑥⑤⑦
口⑦⑦⑥
口⑧口口 |⑤-⑥-|
口口口口 |⑦-⑧-|
17
口口口口 |①-②-|
口④口口 |③-④-|
①口口③
口③②①

口口⑥口
⑥口口口
口⑤⑤口 |⑤-⑥-|
⑦口口⑧ |⑦-⑧-|
18
口口口口 |①-②-|
口④口口 |③-④-|
②口③④
口①②口

⑥⑤口口
⑧口⑥口
口⑦⑧口 |⑤-⑥-|
口口口口 |⑦-⑧-|
19
⑤④口⑤ |①-②-|
口⑤⑤④ |③---|
口⑥口⑥ |④---|
①③③② |⑤-⑥-|
20
⑤口④口 |①-②-|
②⑧⑧③ |③-④-|
⑤口④⑧ |⑤-⑥-|
⑦①②⑥ |⑦-⑧-|
21
口③③④ |①-②-|
口口口③ |③-④-|
②①口口
口口②口

⑤口口口
口⑥⑦口
⑧口口⑨ |-⑤-⑥|
口口口口 |⑦⑧⑨-|
22
口口⑥口 |①②③④|
口口口⑥ |⑤⑥--|
口①②口
⑤③④口
23
口口口口 |①---|
口②①口 |②-③-|
①口口③
口③口口
24
口口口口 |--①-|
口③口④ |--②-|
口④②③ |③-④-|
②口①①
25
①②口② |①---|
口口①口 |②-③-|
口口口口
③口③口
26
口口①口 |--①-|
口①口口 |--②-|
口口②口 |--|
口②口口
27
⑥②⑦① |①-②③|
⑥⑧③① |④⑤⑥-|
⑥④⑨① |⑦⑧⑨⑩|
口⑩⑤口
28
口口口① |①---|
口口②① |②-③-|
口④⑤① |④⑤|
口口③口
29
①口口② |①---|
口①②口 |--②-|
口口口口 |----|
口口口口 |----|
30
①②③④ |①---|
③②①④ |--②-|
①④③② |--③-|
③④①② |--④-|
31
⑥①⑦口 |①②③④|
口口口口 |-⑤⑥⑦|
③口⑤②
口口④④

口口口口
口口⑨⑨
口⑧口⑩ |⑧⑨-⑩|
口口口口
32
口④口④ |①-②-|
口①口口 |③-④-|
③口③口
②口②口

口口口口
口⑥口⑥
口口口⑦ |⑤-⑥⑦|
口⑤口⑤
33
口口①口 |-①②③|
②口口口 |④---|
口口③口
④口口口
34
④④⑦口 |①②③④|
⑤⑤口③ |-⑤-⑥|
⑥⑥⑧口 |⑦-⑧-|
⑧②①口
35
⑥④口③ |①-②-|
④⑥②口 |③-④⑤|
口口口⑤ |-⑥|
口①⑤①
36
口③②③ |①-②-|
口口口② |--③-|
②口①口 |④-|
④②④①
37
①⑥④⑥ |①②③④|
口口②口 |⑤--⑥|
⑤③口口
口口口口
38
口口口口 |-①②③|
①②口口 |④⑤⑥⑦|
⑦⑧③⑨ |⑧⑨|
口⑥⑤④
39
口④①口 |--①-|
④①口① |-②-③|
口口③口 |④-⑤⑥|
②⑥⑤口
40
口口②口 |-①②-|
口⑥口② |③④⑤⑥|
口①④⑤
口口口③

⑦⑧口口
口口口口
⑨⑩口口 |⑦⑧--|
⑩⑨口口 |⑨-⑩-|
41
②③⑤② |①-②-|
口口④① |③④-⑤|
口口①口
口口口口

⑫口口口
口⑥口口
⑦⑧⑪口 |⑥⑦⑧⑨|
口口⑨⑩ |⑩⑪-⑫|
42
口①⑥口 |①②③④|
口口②⑦ |⑤⑥⑦⑧|
⑤⑧⑧③
口④口口
43
口口口② |--①-|
⑥③⑥口 |②③-④|
⑤口⑤口 |-⑤-⑥|
①④口④
44
①①①口 |-①-②|
口④口⑤ |③④⑤-|
口⑦⑦口 |⑥-⑦-|
②⑥③⑥
45
②②口口 |①-②-|
①⑥①口 |③④⑤⑥|
⑤口口口
③口④口

口口⑦⑦
⑧口⑨⑨
口⑩⑪⑪ |-⑦⑧⑨|
口口口口 |⑩⑪|
46
③④口口 |--①②|
⑨⑨口⑥ |③④-⑤|
⑦⑦⑧口 |⑥⑦⑧⑨|
⑤⑤②① |--|
47
②⑥⑤④ |①②③④|
口口③⑦ |⑤⑥⑦⑧|
口口⑧口
口口①口

口⑮⑮口
⑪口口口
⑩⑫口⑭ |⑨⑩⑪⑫|
口⑨⑬口 |⑬⑭-⑮|
48
⑤口口④ |---①|
口③口口 |②③④⑤|
口口②口
口①口口

口⑪⑪口
⑨口⑥口
⑦口口⑩ |⑥⑦⑧⑨|
口⑪⑪⑧ |⑩-⑪-|
49
②⑤口④ |--①-|
口④②口 |-②--|
口③①⑤ |③-④-|
①口口③ |-⑤--|
50
口口口口 |①-②③|
口④①⑤ |④⑤⑥⑦|
②口③口
①⑥⑦口

⑭⑧口⑨
⑩口口口
口口⑬⑪ |⑧⑨⑩⑪|
⑫口口⑮ |⑫⑬⑭⑮|
51
口③②口 |①-②-|
③口口② |-③--|
②①口③
口②③口

⑤口口口
口口④⑥
口④口口 |---④|
口口口口 |--⑤⑥|
52
口③口口 |①②③-|
③口⑥口 |④⑤-⑥|
①⑤④口
⑤口口②

⑦⑨口⑨
口⑦口口
口口口口 |⑦---|
口⑧口⑧ |⑧-⑨-|
53
②口②口 |①---|
口口口① |②-③-|
①口①口
③口③口

口⑥口⑥
④口④⑨
⑦⑧⑦口 |④⑤-⑥|
口⑤口⑤ |⑦-⑧⑨|
54
①口③⑨ |①②-③|
⑤④口⑨ |④⑤⑥⑦|
⑬⑫⑥② |⑧⑨-⑩|
⑧⑦⑪⑩ |⑪⑫⑬-|
55
口②⑦⑥ |①②-③|
②口口③ |④⑤⑥⑦|
口口④①
口⑤口口

口口口口
口⑬⑫⑭
⑨⑧口⑭ |⑧⑨⑩⑪|
⑪口口⑩ |⑫⑬⑭-|
56
⑧③⑨③ |①--②|
⑩⑧⑥⑦ |-③-④|
②⑤②口 |⑤⑥⑦-|
④①①口 |⑧-⑨⑩|
57
口⑤口③ |①②③-|
口口⑥口 |④-⑤⑥|
②口口③
④④①口

⑩口⑩口
口⑨口口
⑫⑦⑫口 |⑦⑧⑨-|
⑪口口⑧ |⑩-⑪⑫|
58
口④口④ |-①②-|
②⑥②⑥ |③④-⑤|
口⑧口⑦ |⑥-⑦-|
⑨①③⑤ |⑧-⑨-|
59
口口②① |①-②③|
口口③② |-④--|
②口④口
口②口口

口⑤⑧口
⑤⑥⑨⑧
⑧口口⑤ |⑤⑥-⑦|
⑦⑧⑤口 |--⑧⑨|
60
①口口① |-①--|
口口口口 |----|
口①①口 |----|
口口口口 |----|


不確定度: 0

最終更新:2013年10月17日 16:02