Go For The Top
U1 overground

EXTREME

Level: 10
BPM: 180
Notes: 708

1
口口口口 |----|
口口口口 |----|
口口口口 |----|
口口口口 |----|
2
口口口口 |----|
口口口口 |----|
口口口口 |----|
口口口口 |----|
3
口口口口 |----|
口口口口 |----|
口口口口 |----|
口口口口 |----|
4
②④④③ |①-②-|
⑦①①⑧ |③-④-|
口①①口 |⑤-⑥-|
⑥口口⑤ |⑦-⑧-|
5
⑤口口⑥ |①-②③|
⑨口②口 |④-⑤-|
①③口① |⑥-⑦-|
⑦口④⑧ |⑧-⑨-|
6
口口口口 |①-②-|
口①①口 |③-④-|
②①①③
口④④口

⑤口口口
口口⑧⑥
口口口口 |⑤-⑥-|
⑦口口口 |⑦-⑧-|
7
口①①② |①-②③|
⑦③口⑧ |④-⑤⑥|
口⑤⑥口 |⑦-⑧-|
口⑨⑩④ |⑨-⑩-|
8
①②③口 |①②③-|
口④⑤口 |④⑤⑥⑦|
口⑥⑦口
口口口口

⑫口口口
⑧口口口
口口口口 |⑧-⑨⑩|
口⑪⑩⑨ |⑪-⑫-|
9
口口⑤① |①②③④|
⑥②口③ |⑤-⑥-|
④⑨⑧⑦ |⑦⑧⑨-|
⑩⑪⑫口 |⑩⑪⑫-|
10
⑧④⑤⑦ |①②③-|
口③②① |④⑤⑥⑦|
⑥⑫⑪⑩ |⑧-⑨-|
口口口⑨ |⑩⑪⑫-|
11
⑦⑦④⑤ |①②③-|
①②③④ |④-⑤-|
口口口口 |⑥---|
口口⑥⑥ |⑦---|
12
口口②⑧ |①-②-|
口口③⑤ |③-④⑤|
①⑦口口 |-⑥-⑦|
①④⑥⑨ |⑧-⑨-|
13
⑤④口⑥ |①-②-|
④⑤②口 |③-④-|
口⑦⑥③ |⑤--⑥|
①口口⑦ |--⑦-|
14
口口②⑧ |①-②-|
口口③⑤ |③-④⑤|
①⑦口口 |-⑥-⑦|
①④⑥⑨ |⑧-⑨-|
15
⑥⑥口口 |①-②-|
④口②口 |③-④-|
⑤⑤口③ |⑤---|
①口口口 |⑥---|
16
⑩⑪⑫口 |①②③-|
口③②① |④⑤⑥-|
口⑨⑧⑦ |⑦⑧⑨-|
④⑤⑥口 |⑩⑪⑫-|
17
⑩⑪⑫口 |①②③-|
口③②① |④⑤⑥-|
口⑨⑧⑦ |⑦⑧⑨-|
④⑤⑥口 |⑩⑪⑫-|
18
⑩⑪⑫口 |①②③-|
口③②① |④⑤⑥-|
口⑨⑧⑦ |⑦⑧⑨-|
④⑤⑥口 |⑩⑪⑫-|
19
⑩⑪⑫口 |①②③-|
口③②① |④⑤⑥-|
口⑨⑧⑦ |⑦⑧⑨-|
④⑤⑥口 |⑩⑪⑫-|
20
口口口口 |--①-|
③①①③ |②---|
④口口⑤ |-③--|
④②②⑤ |④-⑤-|
21
①口口① |--①-|
口口口口 |②---|
口②口口
口口②口

口口⑥⑩
⑨⑤口口
口口④⑧ |③④⑤⑥|
⑦③口口 |⑦⑧⑨⑩|
22
口①口⑥ |--①-|
⑤口①口 |②--③|
②③③口 |-④--|
口④④② |⑤-⑥-|
23
⑮⑦⑧⑯ |①②③④|
⑬⑤⑥⑭ |⑤⑥⑦⑧|
③⑪⑫④ |⑨⑩⑪⑫|
①⑨⑩② |⑬⑭⑮⑯|
24
口③③口 |--①-|
④①①⑤ |②---|
口④⑤口 |-③--|
②口口② |④-⑤-|
25
①口⑩⑥ |--①-|
⑤⑨①口 |②---|
②口⑧④ |③④⑤⑥|
③⑦口② |⑦⑧⑨⑩|
26
③①口④ |--①-|
口口①口 |②--③|
②⑤⑤口 |-④--|
口⑥⑥② |⑤-⑥-|
27
口①②⑩ |①-②-③-|
⑨⑤⑥⑩ |④-⑤-⑥-|
③口口④ |⑦-⑧-⑨-|
⑦口口⑧ |⑩---|
28
①②③口 |①②③-|
口⑫⑪⑩ |④⑤⑥-|
口⑥⑤④ |⑦⑧⑨-|
⑦⑧⑨口 |⑩⑪⑫-|
29
口③②① |①②③-|
⑩⑪⑫口 |④⑤⑥-|
④⑤⑥口 |⑦⑧⑨-|
口⑨⑧⑦ |⑩⑪⑫-|
30
①②③口 |①②③-|
口⑫⑪⑩ |④⑤⑥-|
口⑥⑤④ |⑦⑧⑨-|
⑦⑧⑨口 |⑩⑪⑫-|
31
口③②① |①②③-|
⑩⑪⑫口 |④⑤⑥-|
④⑤⑥口 |⑦⑧⑨-|
口⑨⑧⑦ |⑩⑪⑫-|
32
①③口② |①②③④|
口口口口 |⑤-⑥⑦|
口⑥⑦④
⑤口口口

口口口⑮
⑩⑭⑬⑨
⑧口口口 |⑧⑨⑩⑪|
口⑫口⑪ |⑫⑬⑭⑮|
33
①②③口 |①②③-|
口⑫⑪⑩ |④⑤⑥-|
口⑥⑤④ |⑦⑧⑨-|
⑦⑧⑨口 |⑩⑪⑫-|
34
口①口⑥ |①②③④|
③口口口 |⑤⑥⑦⑧|
口⑤④口
⑦口⑧②

⑬⑭⑮口
口口⑫⑩
⑪口口口 |⑨⑩⑪⑫|
口⑨口口 |⑬⑭⑮-|
35
口口口口 |①②③-|
口口口口 |④⑤⑥-|
口③②①
④⑤⑥口

口口⑪⑦
⑧⑫口口
⑩口口⑬ |⑦⑧⑨⑩|
口口口⑨ |⑪⑫⑬-|
36
①①口④ |①-②-|
⑤口⑧② |③-④-|
⑦口口口 |⑤-⑥-|
③口口⑥ |⑦-⑧-|
37
③口口⑧ |①-②-|
口口口② |③-④-|
口⑦口④ |⑤-⑥-|
⑤①口⑥ |⑦-⑧-|
38
口⑤④口 |①-②-|
口①⑧⑥ |③-④-|
③口口口 |⑤-⑥-|
⑦口②口 |⑦-⑧-|
39
①口口① |①-②-|
③口口口 |③-④-|
口口④②
口③②④

⑧口⑥⑧
口⑤口⑥
⑤⑦口口 |⑤-⑥-|
⑦口口口 |⑦-⑧-|
40
口⑥口口 |①-②-|
②口⑤口 |③-④-|
⑧口口③ |⑤-⑥-|
口④①⑦ |⑦-⑧-|
41
口口口① |①-②-|
②⑥口⑤ |③-④-|
⑧口口口 |⑤-⑥-|
④口③⑦ |⑦-⑧-|
42
②口口③ |①-②-|
②口③口 |③---|
口④⑤① |-④--|
④口口⑤ |--⑤-|
43
口口口口 |----|
口口口口 |----|
口口口口 |----|
口口口口 |----|
44
口口口口 |----|
口口口口 |----|
口口口口 |----|
口口口口 |----|
45
⑧口①⑦ |①-②-|
②⑥口④ |③-④-|
口③⑦① |⑤-⑥-|
⑤口④口 |⑦-⑧-|
46
口③⑤口 |①-②-|
⑥⑧②⑤ |③-④-|
④⑥⑦② |⑤-⑥-|
⑧①口⑦ |⑦-⑧-|
47
⑤②口① |①-②-|
口口④④ |③-④-|
⑥口⑦① |⑤-⑥-|
⑧③口⑦ |⑦-⑧-|
48
口口口② |①-②-|
③口④④ |③-④-|
⑤①⑥② |⑤-⑥-|
⑦⑤⑧⑥ |⑦-⑧-|
49
①②③口 |①②③-|
口④⑤口 |④⑤⑥⑦|
口⑥⑦口
口口口口

⑫口口口
⑧口口口
口口口口 |⑧-⑨⑩|
口⑪⑩⑨ |⑪-⑫-|
50
口口⑤① |①②③④|
⑥②口③ |⑤-⑥-|
④⑨⑧⑦ |⑦⑧⑨-|
⑩⑪⑫口 |⑩⑪⑫-|
51
⑧④⑤⑦ |①②③-|
口③②① |④⑤⑥⑦|
⑥⑫⑪⑩ |⑧-⑨-|
口口口⑨ |⑩⑪⑫-|
52
⑥⑥④⑤ |①②③-|
①②③④ |④-⑤-|
口口口口 |⑥---|
口口⑦⑦ |⑦---|
53
口口口口 |①---|
口口口口 |----|
①①口口 |----|
口口口口 |----|
54
②口口② |①---|
口口口口 |----|
口口口口 |②---|
口①①口 |----|
55
口口②⑧ |①-②-|
口口③⑤ |③-④⑤|
①⑦口口 |-⑥-⑦|
①④⑥⑨ |⑧-⑨-|
56
③⑤⑤口 |①-②-|
口口②口 |③-④-|
④口口⑥ |⑤---|
①口⑥口 |⑥---|
57
⑦口⑥② |①-②-|
①⑧⑧⑤ |③-④⑤|
⑧①③⑧ |-⑥-⑦|
④口口口 |⑧---|
58
口口⑥② |①-②-|
口⑧⑧⑤ |③-④⑤|
⑦④口口 |-⑥-⑦|
口①①③ |⑧---|
59
⑦②⑦口 |①-②-|
口⑦口⑦ |③-④-|
⑥口口③ |⑤-⑥-|
④①①⑤ |⑦---|
60
口①口① |①---|
①口①口 |②---|
口口口口
口②②口

口口口口
口⑤⑥口
口⑦口口 |③-④-|
③口口④ |⑤⑥-⑦|
61
⑬⑦⑭⑤ |①-②③|
⑨⑪⑩⑥ |④⑤-⑥|
④口①③ |⑦⑧⑨⑩|
口②⑫⑧ |⑪⑫⑬⑭|
62
口⑤口② |①-②③|
⑥口口口 |④⑤-⑥|
③口④口
①口口口

口口口口
口⑩⑬⑨
口口口⑦ |⑦⑧⑨⑩|
⑫⑧⑪⑭ |⑪⑫⑬⑭|
63
④③②① |①②③④|
⑪⑨⑫⑩ |⑤⑥⑦⑧|
⑤⑥⑦⑧ |⑨⑩⑪⑫|
⑮⑬⑭⑯ |⑬⑭⑮⑯|
64
①①⑤③ |①-②③|
⑥⑩⑪⑦ |④⑤-⑥|
②④口口 |⑦-⑧⑨|
⑫⑧⑨口 |⑩⑪-⑫|
65
⑧⑦⑥⑤ |①②③④|
⑨⑩⑪⑫ |⑤⑥⑦⑧|
④③②① |⑨⑩⑪⑫|
⑬⑭⑮⑯ |⑬⑭⑮⑯|
66
⑤⑨④② |①②③④|
⑦口⑬⑪ |⑤⑥⑦⑧|
①③⑧⑥ |⑨-⑩⑪|
⑩⑫口⑭ |⑫⑬-⑭|
67
④⑬⑥⑤ |①-②③|
⑪⑦⑭⑫ |④⑤-⑥|
①②⑧③ |⑦⑧⑨⑩|
口⑨⑩口 |⑪⑫⑬⑭|
68
②口⑦③ |①-②-③-|
口口口口 |④-⑤-⑥-|
口⑥⑦① |⑦---|
④口口⑤ |----|


不確定度: 0

最終更新:2013年10月24日 23:13