heron
S-C-U

EXTREME

Level: 9
BPM: 182
Notes: 604

1
口口口口 |----|
口口口口 |----|
口口口口 |----|
口口口口 |----|
2
⑥⑦⑧口 |①-②-|
⑫⑪⑩⑨ |③④⑤-|
口⑤④③ |⑥⑦⑧-|
口②①口 |⑨⑩⑪⑫|
3
口③口① |①---|
口口口口 |②-③-|
口口口③
②口③口

⑤口④⑤
口⑤⑤口
④口口口 |--④-|
口④口口 |--⑤-|
4
口口口口 |--①-|
③⑤口② |②---|
口口口口 |③-④-|
④口口① |⑤---|
5
①⑤⑤① |①---|
⑤④③⑤ |②-③-|
③口②④ |--④-|
口③④口 |--⑤-|
6
①口⑤③ |--①-|
口口口口 |②---|
②口口④ |③-④-|
口口口口 |⑤---|
7
口①口口 |①---|
①口③② |②-③-|
口口口口
口口口①

口口④口
⑤口口口
口口口口 |--④-|
口口口口 |--⑤-|
8
口口口口 |----|
口口④③ |①-②-|
口口口口 |--③-|
①②口口 |④---|
9
①⑫⑪② |①-②-|
口⑩⑨口 |③-④-|
③⑧⑦④ |⑤⑥⑦⑧|
口⑥⑤口 |⑨⑩⑪⑫|
10
⑤口口① |①---|
③④口① |②---|
口口口口 |③-④-|
②口口口 |⑤---|
11
口口⑦口 |①-②-|
口口⑤① |③-④-|
口口②⑥ |⑤-⑥-|
口口④③ |--⑦-|
12
口口口口 |--①-|
口口④① |②---|
口口②口 |③---|
口口③口 |④---|
13
口口⑦口 |①-②-|
口口⑥① |③-④-|
口口②⑤ |⑤-⑥-|
口口④③ |--⑦-|
14
口口口② |--①-|
口口③① |②---|
口口口口 |③---|
口口口④ |④---|
15
②③口口 |①---|
④口口口 |②-③-|
口⑤①口 |--④-|
口口口口 |--⑤-|
16
口口口② |--①-|
口口口口 |--②-|
口口④口 |--③-|
①口口③ |④---|
17
口④①③ |①---|
口口⑤② |②-③-|
口口口⑥ |--④-|
口口口口 |⑤-⑥-|
18
①口口口 |①-②-|
⑤②口口 |③-④-|
⑦⑥③口 |⑤-⑥-|
口⑧口④ |⑦-⑧-|
19
口口⑧⑦ |①-②-|
口③⑤① |③-④-|
⑦口②⑥ |⑤-⑥-|
①口④③ |⑦-⑧-|
20
口口口口 |--①-|
②口④① |②---|
④口②口 |③---|
口口③口 |④---|
21
口口⑧口 |①-②-|
③口⑥① |③-④-|
⑦口②⑤ |⑤-⑥-|
口口④③ |⑦-⑧-|
22
口口口② |--①-|
②口③① |②---|
④口口口 |③---|
口口口④ |④---|
23
②③口口 |①---|
④口口② |②-③-|
口口①⑤ |--④-|
⑥口口口 |⑤-⑥-|
24
口②口口 |----|
口③口① |①-②-|
口口④口 |--③-|
口口口口 |④---|
25
口口口口 |①---|
口口④② |②-③-|
③口口① |----|
口③①口 |④---|
26
口①⑬⑩ |①---|
①⑫⑨⑥ |②③④⑤|
⑪⑧⑤③ |⑥⑦⑧⑨|
⑦④②口 |⑩⑪⑫⑬|
27
①①口口 |①-②③|
口⑧口口 |④-⑤-|
口⑥⑦⑤ |--⑥-|
口④③② |⑦-⑧-|
28
口口①口 |①-②③|
口口⑧① |④-⑤-|
⑤⑦⑥口 |--⑥-|
②③④口 |⑦-⑧-|
29
①④③② |①-②③|
①口口⑩ |④-⑤-|
⑤口口⑥ |⑥-⑦⑧|
⑦⑧⑨⑥ |⑨-⑩-|
30
口口口口 |①---|
②口口口 |②---|
③①口⑤ |----|
口口口④ |③-④⑤|
31
口口③口 |①---|
②口④① |②-③④|
⑥口⑤口 |⑤---|
口口⑧⑦ |⑥-⑦⑧|
32
口口口③ |①-②-|
②⑦⑧口 |③-④-|
口⑥⑤④ |⑤-⑥-|
口①口口 |⑦-⑧-|
33
⑦⑤①② |①-②-|
⑤口⑧① |③-④-|
①口④⑤ |⑤-⑥-|
③①⑤⑥ |⑦-⑧-|
34
口口①② |①-②-|
口口口① |③-④-|
①口④口
③①口口

⑩⑤口口
⑤⑧⑦⑨
口口口⑤ |⑤-⑥-|
口口⑤⑥ |⑦⑧⑨⑩|
35
口口①① |①-②③|
口口口口 |④-⑤-|
②③④口
⑤口口口

口口⑧口
口⑦⑥口
口口口口 |--⑥-|
口口口口 |⑦-⑧-|
36
口①口口 |①-②③|
①口口口 |④-⑤-|
口④③②
口口口⑤

口⑧口口
口⑥⑦口
口口口口 |--⑥-|
口口口口 |⑦-⑧-|
37
口口①口 |①-②③|
口口⑧① |④-⑤-|
⑤⑦⑥口 |--⑥-|
②③④口 |⑦-⑧-|
38
②④口口 |①-②③|
①口口③ |--④-|
④口口口
口①③口

口口⑤口
口口口口
口⑦口⑤ |⑤---|
口⑥口口 |--⑥⑦|
39
③⑤⑥口 |①-②-|
⑤①口② |③-④-|
③⑦⑨④ |⑤-⑥-|
口口⑧口 |⑦-⑧⑨|
40
口口口③ |①-②-|
④口①口 |③-④-|
②口口③
口口口口

口⑥⑤口
口口⑧⑤
口口⑦口 |⑤-⑥-|
口口口口 |⑦-⑧-|
41
⑥⑥⑥⑥ |①--②|
④⑤⑤④ |--③-|
①④④② |-④--|
③②①③ |⑤--⑥|
42
口口⑫⑨ |----|
口⑪⑧⑤ |①②③④|
⑩⑦④② |⑤⑥⑦⑧|
⑥③①口 |⑨⑩⑪⑫|
43
①①口⑧ |①-②-|
口口⑥④ |③-④-|
⑦⑤③口 |⑤-⑥-|
口口口② |⑦-⑧-|
44
⑦⑤②口 |①-②-|
③①口口 |③-④-|
口口口⑥ |⑤-⑥-|
口口④⑧ |⑦-⑧-|
45
口③口口 |①---|
口①①③ |②-③-|
③①①口
②口③口

⑤口④⑤
④⑤⑤口
口口口④ |--④-|
口④口口 |--⑤-|
46
口口口口 |--①-|
口⑩⑨口 |②-③-|
⑧②③⑦ |④-⑤⑥|
①⑥⑤④ |⑦⑧⑨⑩|
47
⑧口①口 |①-②-|
④口口① |③-④-|
口③⑤⑦ |⑤-⑥-|
②⑥口口 |⑦-⑧-|
48
口口口口 |①-②-|
口⑥①③ |③-④-|
②⑤口⑦ |⑤-⑥-|
⑧口④口 |⑦-⑧-|
49
①④口⑧ |①-②-|
①口⑧② |③-④-|
口④③口 |⑤-⑥-|
口⑦⑥⑤ |⑦-⑧-|
50
口⑦⑧口 |--①-|
口⑤⑥口 |②---|
③②①④ |③-④-|
③口口④ |⑤⑥⑦⑧|
51
④口口口 |①-②-|
③口口⑧ |③-④-|
⑦②口⑥ |⑤-⑥-|
口①⑤口 |⑦-⑧-|
52
④口⑥⑤ |①-②-|
③口口口 |③-④-|
口②①口 |⑤-⑥-|
⑧⑦口口 |⑦-⑧-|
53
口③口口 |①---|
口①①③ |②-③-|
③①①口
口口③②

⑤口④⑤
④⑤⑤口
口口口④ |--④-|
口④口口 |--⑤-|
54
口口口口 |--①-|
口⑨⑩口 |②-③-|
⑦③②⑧ |④-⑤⑥|
④⑤⑥① |⑦⑧⑨⑩|
55
口①口⑧ |①-②-|
①口口④ |③-④-|
⑦⑤③⑥ |⑤-⑥-|
口口口② |⑦-⑧-|
56
⑧⑨⑥口 |①-②-|
口②①⑤ |③-④-|
口④③⑦ |⑤-⑥-|
口口口口 |⑦-⑧⑨|
57
口口⑦① |①-②-|
口⑧①④ |③-④-|
②③④⑦ |⑤-⑥-|
⑤⑥口口 |⑦-⑧-|
58
⑪①口⑩ |--①-|
②⑨⑧口 |②-③-|
③⑦⑥口 |④⑤⑥⑦|
口⑤④口 |⑧⑨⑩⑪|
59
口口①口 |①-②③|
口口口① |④⑤⑥⑦|
④口口⑤
②⑥⑦③

口口口口
⑧口口⑪
口⑨⑩口 |⑧-⑨-|
口口口口 |⑩-⑪-|
60
⑪①口⑧ |①-②③|
口⑦⑥口 |④⑤⑥⑦|
⑤⑩⑨④ |⑧-⑨-|
③口口② |⑩-⑪-|
61
口⑧①口 |①-②③|
口⑥⑦① |④⑤⑥⑦|
④⑩⑨⑤ |⑧-⑨-|
⑪②③口 |⑩-⑪-|
62
①口②① |①-②-|
口③④③ |③-④-|
⑤口⑥⑤ |⑤-⑥-|
口⑦⑧⑦ |⑦-⑧-|
63
口①口② |①-②③|
①③④口 |④⑤⑥⑦|
⑦⑤⑧⑥ |⑧-⑨-|
⑨⑩⑪口 |⑩-⑪-|
64
②口①⑤ |①-②③|
口④③① |④⑤⑥⑦|
⑥口⑦口
口口口口

口⑩⑪口
⑨口口口
口⑧口口 |⑧-⑨-|
口口口口 |⑩-⑪-|
65
⑮⑮⑭⑬ |①②③④|
⑨⑫⑪⑩ |⑤⑥⑦⑧|
⑧⑥⑤④ |⑨⑩⑪⑫|
⑦③②① |⑬⑭⑮-|


不確定度: 0

最終更新:2013年10月24日 23:09