Straight Oath
矢鴇つかさ feat. 三澤秋

EXTREME

Level: 9
BPM: 182
Notes: 613

1
口口口口 |----|
口口口口 |----|
口口口口 |----|
口口口口 |----|
2
口④口口 |①---|
⑥口③⑥ |--②③|
口②⑤口 |④-⑤-|
①口口① |⑥---|
3
口口口口 |①---|
口③④口 |--②-|
口口口② |----|
①①②口 |③-④-|
4
口口口口 |----|
口口口口 |----|
口口②口 |----|
口①口口 |--①②|
5
口③口② |①--②|
①口口⑥ |--③-|
④口口口 |④--⑤|
口口⑤口 |--⑥-|
6
③口口③ |①---|
①口口口 |----|
口①口口 |②---|
②口口② |③---|
7
口②③口 |①---|
②①口③ |----|
口口①口 |----|
口口口口 |②-③-|
8
口口口口 |----|
口口口口 |----|
口口②口 |----|
口①口口 |--①②|
9
口②③口 |①---|
④①口口 |--②③|
口口⑦⑤ |④-⑤-|
⑥口口口 |⑥-⑦-|
10
①口口① |----|
口②③口 |--①-|
口④⑤口 |--②③|
口⑥⑦口 |④⑤⑥⑦|
11
口口口口 |----|
口口口口 |----|
口口口口
口口口口
12
⑨①⑤⑬ |①②③④|
⑩②⑥⑭ |⑤⑥⑦⑧|
⑪③⑦⑮ |⑨⑩⑪⑫|
⑫④⑧⑯ |⑬⑭⑮⑯|
13
⑤口口⑥ |①---|
口①④口 |--②-|
口③口口 |③-④-|
口①②口 |⑤-⑥-|
14
口口口口 |①---|
口口口口 |----|
口口①口
口①口口

口口口口
②③④口
⑤⑥⑦口 |--②③|
口口口口 |④⑤⑥⑦|
15
②③口口 |①---|
口口⑦④ |--②③|
⑤口口① |④-⑤-|
口口⑥口 |⑥-⑦-|
16
口口口口 |①---|
口②口口 |--②-|
口①①口
口口口口

口口口口
口口口口
④⑧⑨⑤ |③④⑤⑥|
⑥⑩⑦③ |⑦⑧⑨⑩|
17
②⑧③⑤ |①②③④|
⑥④⑦① |⑤⑥⑦⑧|
⑩⑫⑬⑨ |⑨⑩⑪⑫|
⑯⑭⑪⑮ |⑬⑭⑮⑯|
18
口口口口 |①---|
口口④① |----|
②③口② |②---|
口口口口 |③-④-|
19
⑤①①④ |①---|
⑦③口⑥ |②-③-|
⑨口②⑧ |--④⑤|
口口口口 |⑥⑦⑧⑨|
20
⑥口④⑥ |①---|
口②③口 |--②-|
口⑤②口 |③-④-|
口①①口 |⑤-⑥-|
21
口口口口 |--①-|
口口口口 |②---|
④口口口 |③-④-|
③①②⑤ |⑤---|
22
⑥口口⑥ |①---|
①②④① |--②-|
口⑤③口 |③-④-|
口口②口 |⑤-⑥-|
23
口⑧⑦⑨ |--①-|
③④⑤⑥ |②-③④|
口⑧⑦⑨ |⑤⑥⑦-|
口①②口 |⑧-⑨-|
24
①口口口 |①---|
口②口口 |--②-|
口口口口
口口②口

⑥口④⑥
口口③口
口⑤口口 |③-④-|
口口口口 |⑤-⑥-|
25
口口口口 |--①-|
③口口④ |②---|
④口口③ |③---|
口①②口 |④---|
26
③口口③ |①---|
口③③口 |②-③-|
口②口口 |----|
①④口① |④---|
27
③口口③ |①---|
口③③① |②-③-|
①④⑤口 |--④-|
口口②口 |⑤---|
28
⑥口④⑥ |①---|
口②③口 |--②-|
口⑤口口 |③-④-|
①口②① |⑤-⑥-|
29
口口口口 |--①-|
口口口口 |②---|
④口口口 |③-④-|
③①②⑤ |⑤---|
30
⑥口口⑥ |①---|
①②④① |--②-|
口⑤③口 |③-④-|
口口②口 |⑤-⑥-|
31
口口⑧口 |--①-|
③④⑤⑥ |②-③④|
⑦口⑧口 |⑤⑥⑦-|
口①②口 |⑧---|
32
口口口③ |①---|
②口③口 |②-③-|
④②口④ |--④-|
①口口① |----|
33
口口口口 |①---|
口口口口 |--②-|
③③④④ |③---|
①②②① |④---|
34
①口口口 |①-②-|
⑦①②③ |③-④-|
④⑦⑧口 |⑤-⑥-|
口④⑤⑥ |⑦-⑧-|
35
②⑥⑤口 |①-②-|
⑦②③④ |③-④-|
口口⑧① |⑤-⑥-|
口口口口 |⑦-⑧-|
36
②口口口 |①---|
③口口口 |--②-|
口口口口 |----|
①①口口 |③---|
37
口口口③ |--①-|
口①口④ |----|
口②②口 |②---|
口口口口 |③-④-|
38
口口口口 |①---|
口③口口 |--②-|
口②口口 |----|
①①口口 |③---|
39
口②④口 |--①-|
①口口③ |--②-|
口口⑤口 |③---|
口口口② |④-⑤-|
40
口③口③ |①---|
②口②口 |②---|
口口口口 |--③-|
①①口口 |----|
41
口口口口 |①---|
口②口② |--②-|
口口口口 |----|
口①③① |③---|
42
②口②口 |①---|
口③口③ |②---|
口口口口 |--③-|
①口口口 |----|
43
口口④口 |①---|
口口⑤口 |--②-|
口②③② |③---|
①口①口 |④-⑤-|
44
②口口口 |①---|
③口口口 |--②-|
口口口口 |----|
①①口口 |③---|
45
口口口④ |--①-|
口①口⑤ |--②-|
口②③口 |③---|
口口口口 |④-⑤-|
46
②口口口 |①---|
口③口口 |----|
②口口口 |②---|
①①口口 |③---|
47
口口④口 |①---|
口口口口 |--②-|
口①⑤③ |③---|
口口口② |④-⑤-|
48
口口口口 |①---|
口口口口 |----|
②②口口 |②---|
①①口口 |----|
49
口口口口 |①---|
口口口口 |----|
②②口口 |②---|
①①口口 |----|
50
⑦⑧口口 |①-②-|
③④⑥⑥ |③-④-|
⑤⑥口口 |⑤-⑥-|
①②③口 |⑦-⑧-|
51
⑦⑧⑦口 |①-②-|
③④⑥口 |③-④-|
⑤⑥④口 |⑤-⑥-|
①②口① |⑦-⑧-|
52
口口口口 |----|
⑤②③口 |--①-|
①口口④ |②-③-|
口口口口 |④-⑤-|
53
③①口② |①---|
口口口口 |②-③-|
口口口口
口口①口

口⑦⑤口
口口口口
口⑥④口 |④-⑤-|
口口口口 |⑥-⑦-|
54
口⑧⑥口 |①-②-|
②口口① |③-④-|
⑦⑦⑤⑤ |⑤-⑥-|
④④口③ |⑦-⑧-|
55
口⑧⑦口 |①-②-|
②口①① |③-④-|
⑥⑧⑦⑤ |⑤-⑥-|
④④③③ |⑦-⑧-|
56
⑧口口口 |①-②-|
④③②① |③-④-|
⑥口⑦⑦ |⑤-⑥-|
口口⑤⑤ |⑦-⑧-|
57
口②③③ |①-②-|
④④①① |③-④-|
⑧口口⑦ |⑤-⑥-|
⑧⑥⑤⑦ |⑦-⑧-|
58
口④②口 |①-②-|
口⑥⑤口 |③-④-|
⑧③①口 |⑤-⑥-|
口⑧⑦⑦ |⑦-⑧-|
59
④④③③ |①-②-|
②口口口 |③-④-|
口口①①
口口口口

口口口口
口口口⑤
口⑥⑧口 |⑤-⑥-|
⑦⑧⑥口 |⑦-⑧-|
60
口口口口 |----|
⑤②③口 |--①-|
①口口④ |②-③-|
口口口口 |④-⑤-|
61
③①口② |①---|
口口口② |②-③-|
口口口口
口口①口

口⑦⑤口
口口口口
口⑥④⑤ |④-⑤-|
口口口口 |⑥-⑦-|
62
口⑧⑥口 |①-②-|
②口①口 |③-④-|
⑦⑦⑤⑤ |⑤-⑥-|
④④①③ |⑦-⑧-|
63
口⑧⑦口 |①-②-|
②口①① |③-④-|
⑥⑧⑦⑤ |⑤-⑥-|
④④③③ |⑦-⑧-|
64
④口口① |①-②-|
口③②⑤ |③-④-|
⑥口⑦口 |⑤-⑥-|
⑧口⑤⑦ |⑦-⑧-|
65
口④③① |①-②-|
②④③⑤ |③-④-|
⑥⑧⑦① |⑤-⑥-|
⑧口口⑦ |⑦-⑧-|
66
④⑥⑤① |①-②-|
口③②口 |③-④-|
口⑧⑧口 |⑤-⑥-|
口⑦⑦口 |⑦-⑧-|
67
口口口口 |①---|
①口口① |----|
①口口①
口口口口

口口口口
口口口口
②口口② |----|
口②②口 |--②-|
68
②口口② |----|
①①①① |①---|
口口口口 |②---|
③口口③ |③---|
69
⑨①⑤⑬ |①②③④|
⑩②⑥⑭ |⑤⑥⑦⑧|
⑪③⑦⑮ |⑨⑩⑪⑫|
⑫④⑧⑯ |⑬⑭⑮⑯|
70
⑤口口⑥ |①---|
口①④口 |--②-|
口③口口 |③-④-|
口①②口 |⑤-⑥-|
71
口口口口 |①---|
口口口口 |----|
口口①口
口①口口

口口口口
②③④口
⑤⑥⑦口 |--②③|
口口口口 |④⑤⑥⑦|
72
②③口口 |①---|
口口⑦④ |--②③|
⑤口口① |④-⑤-|
口口⑥口 |⑥-⑦-|
73
口口口口 |①---|
口②口口 |--②-|
口①①口
口口口口

口口口口
口口口口
④⑧⑨⑤ |③④⑤⑥|
⑥⑩⑦③ |⑦⑧⑨⑩|
74
②⑧③⑤ |①②③④|
⑥④⑦① |⑤⑥⑦⑧|
⑩⑫⑬⑨ |⑨⑩⑪⑫|
⑯⑭⑪⑮ |⑬⑭⑮⑯|
75
口口口口 |①---|
口口④① |----|
②③口② |②---|
口口口口 |③-④-|
76
⑤①①④ |①---|
⑦③口⑥ |②-③-|
⑨口②⑧ |--④⑤|
口口口口 |⑥⑦⑧⑨|
77
口口口口 |----|
口口口口 |----|
口口口口 |①---|
①①①① |----|


不確定度: 0

最終更新:2013年10月17日 16:14