Fly with me
TAG

EXTREME

Level: 10
BPM: 177
Notes: 845

1
口口口口 |------|
口口口口 |------|
口口口口 |------|
口口口口 |------|
2
④口口⑩ |①-②-③-|
⑥⑪⑤⑫ |④-⑤-⑥-|
①⑨③⑫ |⑦-⑧-⑨-|
①②⑧⑦ |⑩-⑪-⑫-|
3
④口口⑩ |①-②-③-|
⑥⑪⑤⑫ |④-⑤-⑥-|
①⑨③⑫ |⑦-⑧-⑨-|
①②⑧⑦ |⑩-⑪-⑫-|
4
④口口⑩ |①-②-③-|
⑥⑪⑤⑫ |④-⑤-⑥-|
①⑨③⑫ |⑦-⑧-⑨-|
①②⑧⑦ |⑩-⑪-⑫-|
5
④口③口 |①-②-③-|
口口⑥口 |④-⑤-⑥-|
⑤口②口
①①口口

口⑦口口
⑨口口⑩
口⑧⑫口 |⑦-⑧-⑨-|
口⑪口口 |⑩-⑪-⑫-|
6
⑨⑩①① |①-②-③-|
口④⑤⑧ |④-⑤-⑥-|
⑫⑫⑪⑥ |⑦-⑧-⑨-|
⑦口③② |⑩-⑪-⑫-|
7
⑨⑩①① |①-②-③-|
口④⑤⑧ |④-⑤-⑥-|
⑫⑫⑪⑥ |⑦-⑧-⑨-|
⑦口③② |⑩-⑪-⑫-|
8
口⑩①① |①-②-③-|
⑨③④⑧ |④-⑤-⑥-|
⑫⑫⑪口 |⑦-⑧-⑨-|
⑦②⑥⑤ |⑩-⑪-⑫-|
9
②口①① |①-②-③-|
口⑨⑧⑦ |④-⑤-⑥-|
⑫⑪口⑩ |⑦-⑧-⑨-|
⑤④⑥③ |⑩-⑪-⑫-|
10
①①⑦⑥ |①---②-|
②口口⑧ |③-④-⑤-|
口⑨③口 |⑥-⑦-⑧-|
⑪④⑩⑤ |⑨-⑩-⑪-|
11
①①⑦⑥ |①---②-|
②口口⑧ |③-④-⑤-|
口⑨③口 |⑥-⑦-⑧-|
⑪④⑩⑤ |⑨-⑩-⑪-|
12
①①⑦⑥ |①---②-|
②口口⑧ |③-④-⑤-|
口⑨③口 |⑥-⑦-⑧-|
⑪④⑩⑤ |⑨-⑩-⑪-|
13
①①口口 |①---②-|
⑤④③口 |③-④-⑤-|
②⑧⑦⑥ |⑥-⑦-⑧-|
口⑪⑩⑨ |⑨-⑩-⑪-|
14
①⑦①⑥ |①---②-|
③④⑩⑨ |③-④-⑤-|
口⑪⑤口 |⑥-⑦-⑧-|
②口口⑧ |⑨-⑩-⑪-|
15
①⑦①⑥ |①---②-|
③④⑩⑨ |③-④-⑤-|
口⑪⑤口 |⑥-⑦-⑧-|
②口口⑧ |⑨-⑩-⑪-|
16
①⑦①⑥ |①---②-|
③④⑩⑨ |③-④-⑤-|
口⑪⑤口 |⑥-⑦-⑧-|
②口口⑧ |⑨-⑩-⑪-|
17
④⑩③⑦ |①-②-③-|
⑧口⑪口 |④-⑤-⑥-|
⑥⑫⑨① |⑦-⑧-⑨-|
口②⑤口 |⑩-⑪-⑫-|
18
④⑩③⑨ |①-②-③-|
口⑥口⑤ |④-⑤-⑥-|
⑫口⑪口 |⑦-⑧-⑨-|
⑧②⑦① |⑩-⑪-⑫-|
19
口口②口 |①---②-|
口口②口 |--③---|
口③口①
口③口①

④⑤口口
④⑤口口
口口口口 |④---⑤-|
口口⑥⑥ |--⑥---|
20
口口①口 |①---②-|
口口口① |③---④-|
口③④②
口口口口

口⑤⑦口
⑤口口口
口口口口 |⑤---⑥-|
⑥⑦口⑥ |----⑦-|
21
口②口口 |----①-|
②①①口 |----②-|
③⑤④② |----③-|
口口②口 |④---⑤-|
22
③②①口 |①-----|
②③口① |②---③-|
口口口口 |------|
口口④口 |----④-|
23
口②③口 |①---②-|
②口口③ |----③-|
③口口口
①③口口

口口口口
口口口口
口口口⑤ |----④-|
⑥口口④ |⑤---⑥-|
24
①①口口 |①-----|
③口口③ |②---③-|
口②②口
口口口口

口④④口
口口口口
口口口口 |------|
口口口口 |----④-|
25
②口口口 |①-----|
④②口⑤ |----②-|
口口②口 |----③-|
③①①② |④---⑤-|
26
④④口① |①-----|
口口口口 |②-----|
口口口口 |③-----|
③③②② |④-----|
27
口口①⑧ |①---②-|
口⑨⑩① |③---④-|
③口口② |⑤-⑥-⑦-|
⑤⑦⑥④ |⑧-⑨-⑩-|
28
口①口口 |①---②-|
①口口口 |③---④-|
②④③口
口口口口

口⑦⑤口
口口口⑤
口口口口 |⑤---⑥-|
⑥口⑦⑥ |----⑦-|
29
口④②口 |----①-|
④①①② |----②-|
②⑤口③ |----③-|
口②口口 |④---⑤-|
30
口口②③ |①-----|
口口③② |②---③-|
口口①口 |------|
口口口④ |----④-|
31
口③②口 |①---②-|
③口口② |----③-|
⑤①口③ |----④-|
④口③⑥ |⑤---⑥-|
32
口口①① |①-----|
③口口③ |②---③-|
口②②口
口口口口

口④④口
口口口口
口口口口 |------|
口口口口 |----④-|
33
口口口② |①-----|
⑤口②④ |----②-|
口②口口 |----③-|
②①①③ |④---⑤-|
34
①口口口 |①-----|
④口口口 |------|
③④口口 |②---③-|
②③④口 |--④---|
35
①④③② |①-----|
⑦①⑤③ |②---③-|
口⑧①⑥ |④-⑤-⑥-|
口口⑨① |⑦-⑧-⑨-|
36
①⑤③口 |①-----|
⑤②口③ |----②-|
①口④口 |③---④-|
⑥口口⑥ |⑤---⑥-|
37
口③③② |------|
口口口② |----①-|
①口口④ |②---③-|
口口口口 |----④-|
38
④④口口 |①-----|
口口③口 |------|
②①③口 |②---③-|
②①口口 |--④---|
39
口⑩⑦口 |①-②-③-|
④⑧⑪① |④-⑤-⑥-|
⑤⑫⑨② |⑦-⑧-⑨-|
⑥口口③ |⑩-⑪-⑫-|
40
口口口① |①-----|
口④④口 |②---③-|
口口⑤① |----④-|
②②③③ |----⑤-|
41
①口口口 |①-----|
口④④口 |②---③-|
①⑤口口 |----④-|
③③②② |----⑤-|
42
口③③① |①-----|
口口口口 |②---③-|
口④④① |------|
口②②口 |④-----|
43
④⑫⑨① |①-②-③-|
②口口⑤ |④-⑤-⑥-|
口⑧⑪口 |⑦-⑧-⑨-|
⑥⑩⑦③ |⑩-⑪-⑫-|
44
②口口① |①-----|
口④④口 |②---③-|
②口口① |----④-|
③口口③ |------|
45
③①口③ |①-----|
②口口口 |②---③-|
口口①口 |----④-|
④②口④ |------|
46
③口①③ |①-----|
口口口② |②---③-|
口①口口 |----④-|
④口②④ |------|
47
口⑨⑦⑦ |①-②-③-|
口①②③ |④-⑤-⑥-|
④⑤⑥口 |⑦---⑧-|
⑩口⑧口 |⑨---⑩-|
48
④口口口 |①---②-|
⑥⑦②① |③---④-|
⑥③口① |----⑤-|
口④口⑤ |⑥---⑦-|
49
口口口② |①---②-|
口口口口 |----③-|
口口①口
口③②口

口口④口
口口口口
⑤口⑥⑤ |④---⑤-|
口口口口 |----⑥-|
50
口①口③ |①-----|
口⑤③口 |②---③-|
⑤②口口 |----④-|
②④口④ |----⑤-|
51
口③口③ |①-----|
口口口① |②---③-|
④口①④ |------|
②⑤②口 |④---⑤-|
52
口③①③ |①---②-|
⑤⑥④口 |----③-|
⑥⑤口④ |----④-|
②口②口 |⑤---⑥-|
53
口④③② |①-----|
口口口① |②-----|
口口①口 |③-----|
②③④口 |④-----|
54
①口③口 |①-----|
②口口口 |②---③-|
口口口②
口③口①

口④口口
口口口口
口口口口 |------|
⑤口④⑤ |④---⑤-|
55
③⑤口③ |①---②-|
②①①② |----③-|
⑥③③口 |----④-|
口口④口 |⑤---⑥-|
56
④口口口 |①---②-|
⑥⑦②① |③---④-|
⑥③口① |----⑤-|
口④口⑤ |⑥---⑦-|
57
口口口② |①---②-|
口口口口 |----③-|
口口①口
口③②口

口口④口
口口口口
⑤口⑥⑤ |④---⑤-|
口口口口 |----⑥-|
58
③①口③ |①-----|
口④⑥⑤ |②---③-|
④口⑤⑥ |----④-|
②口口② |⑤---⑥-|
59
③③③③ |①-----|
①口口口 |②---③-|
口①口口 |------|
口②②口 |------|
60
⑤⑥⑥口 |①-----|
③口口④ |----②-|
口口口② |③---④-|
①口口① |⑤---⑥-|
61
③口口② |------|
口③②口 |①-----|
口口口口 |②-----|
口①①口 |③-----|
62
口①①口 |①-----|
口④④口 |②---③-|
口③③口 |------|
②口口② |④-----|
63
口⑧⑧① |①-②-③-|
②口口③ |④-⑤-⑥-|
④⑧⑧口 |⑦---⑧-|
⑥⑦⑦⑤ |------|
64
①③④① |①-----|
①口口① |----②-|
口口口口 |③---④-|
⑥⑤②⑥ |⑤---⑥-|
65
②口口口 |------|
口③③口 |----①-|
口口口① |②-----|
口口口口 |③-----|
66
口④口口 |①-----|
④口③口 |------|
口③口② |②---③-|
①口②① |--④---|
67
①口口口 |①-----|
口①④④ |②-----|
③③②口 |③---④-|
口口口② |------|
68
①口⑦④ |①---②-|
口②⑥口 |③---④-|
口⑤③口 |----⑤-|
口①④⑦ |⑥---⑦-|
69
口③口口 |----①-|
⑤②口⑤ |②---③-|
口口①口 |----④-|
③④④口 |----⑤-|
70
②③③② |①-----|
口口口口 |②---③-|
口①①口 |------|
口口口口 |------|
71
口口口口 |------|
口口口口 |------|
口口口口 |------|
口口口口 |------|
72
④⑨③⑩ |①-②-③-|
⑧⑪⑤② |④-⑤-⑥-|
①①⑫⑫ |⑦-⑧-⑨-|
⑥口⑦口 |⑩-⑪-⑫-|
73
④⑨③⑩ |①-②-③-|
⑧⑪⑤② |④-⑤-⑥-|
①①⑫⑫ |⑦-⑧-⑨-|
⑥口⑦口 |⑩-⑪-⑫-|
74
④⑪⑤⑩ |①-②-③-|
⑨口口③ |④-⑤-⑥-|
⑥①⑫⑫ |⑦-⑧-⑨-|
⑧①⑦② |⑩-⑪-⑫-|
75
④口⑤口 |①-②-③-|
口口口③ |④-⑤-⑥-|
⑥①口口
口①口②

口⑪口口
⑨口⑦口
口⑫口⑩ |⑦-⑧-⑨-|
⑧口口口 |⑩-⑪-⑫-|
76
⑦口⑥① |①-②-③-|
⑫④⑩① |④-⑤-⑥-|
⑫⑪⑤口 |⑦-⑧-⑨-|
⑨⑧②③ |⑩-⑪-⑫-|
77
口口⑥① |①-②-③-|
口④口① |④-⑤-⑥-|
口口⑤口
口口②③

⑦口口口
口口⑧⑪
⑩⑫口口 |⑦-⑧-⑨-|
⑨⑫口口 |⑩-⑪-⑫-|
78
⑧④⑨③ |①-②-③-|
②⑥口⑪ |④-⑤-⑥-|
⑩口⑦⑤ |⑦-⑧-⑨-|
⑫⑫①① |⑩-⑪-⑫-|
79
⑧②口⑦ |①-②-③-|
④口③⑪ |④-⑤-⑥-|
⑫⑥⑨⑤ |⑦-⑧-⑨-|
⑩口①① |⑩-⑪-⑫-|
80
⑧①①⑦ |①-②-③-|
口②③⑨ |④-⑤-⑥-|
⑩④口⑪ |⑦-⑧-⑨-|
⑫⑥⑤口 |⑩-⑪-⑫-|
81
⑧口①⑦ |①-②-③-|
口②③⑨ |④-⑤-⑥-|
⑩④口口 |⑦-⑧-⑨-|
⑫⑥⑤⑪ |⑩-⑪-⑫-|
82
⑧口①⑦ |①-②-③-|
口②③⑨ |④-⑤-⑥-|
⑩④口口 |⑦-⑧-⑨-|
⑫⑥⑤⑪ |⑩-⑪-⑫-|
83
⑧口①⑦ |①-②-③-|
口②③⑨ |④-⑤-⑥-|
⑩④口口 |⑦-⑧-⑨-|
⑫⑥⑤⑪ |⑩-⑪-⑫-|


不確定度: 0

最終更新:2013年10月24日 23:05