こどなの階段
南波志帆

BASIC

Level: 3
BPM: 138
Notes: 197

1
口口口口 |----|
口口口口 |----|
口口口口 |----|
口口口口 |----|
2
口口口口 |①---|
①②口口 |----|
口口口口 |②---|
口口口口 |----|
3
口口口口 |①---|
口口①口 |----|
口口口口 |----|
口口口口 |----|
4
口口口口 |①---|
口口口口 |----|
①②口口 |②---|
口口口口 |----|
5
口口口口 |①---|
口口口口 |----|
口口①② |②---|
口口口口 |----|
6
口口口口 |①---|
①②口口 |----|
口口口口 |②---|
口口口口 |----|
7
口口口口 |①---|
口口①口 |----|
口口口口 |----|
口口口口 |----|
8
口口口口 |①---|
口口口口 |----|
①②口口 |②---|
口口口口 |----|
9
口口口口 |①---|
口口口口 |----|
口口①② |②---|
口口口口 |----|
10
口口口口 |①---|
口①①口 |----|
口口口口 |----|
口口口口 |----|
11
①口口② |①---|
口口口口 |----|
口口口口 |②---|
口口口口 |----|
12
口口口口 |①---|
口①①口 |----|
口口口口 |----|
口口口口 |----|
13
口口口口 |①---|
①口口② |----|
口口口口 |②---|
口口口口 |----|
14
口口口口 |①---|
口口口口 |----|
口①①口 |----|
口口口口 |----|
15
①口口② |①---|
口口口口 |----|
口口口口 |②---|
口口口口 |----|
16
口口口口 |①---|
口①①口 |----|
口口口口 |----|
口口口口 |----|
17
口口口口 |①---|
①口口② |----|
口口口口 |②---|
口口口口 |----|
18
口口口口 |①---|
口口口口 |----|
口①①口 |----|
口口口口 |----|
19
①②口口 |①---|
口口口口 |----|
口口口口 |②---|
口口口口 |----|
20
口口口口 |①---|
口口①① |----|
口口口口 |----|
口口口口 |----|
21
口口口口 |①---|
①②口口 |----|
口口口口 |②---|
口口口口 |----|
22
口口口口 |①---|
口口口口 |----|
口口①① |----|
口口口口 |----|
23
口口口口 |①---|
口口口口 |----|
①②口口 |②---|
口口口口 |----|
24
口口口口 |①---|
口口口口 |----|
口口口口 |----|
口口①① |----|
25
口①①口 |①---|
②口口② |----|
口口口口 |②---|
口口口口 |----|
26
口口口口 |①---|
口口口口 |----|
①口口① |②---|
口②②口 |----|
27
①②口口 |①---|
口口口口 |----|
口口口口 |②---|
口口口口 |----|
28
口口口口 |①---|
口口①① |----|
口口口口 |----|
口口口口 |----|
29
口口口口 |①---|
①②口口 |----|
口口口口 |②---|
口口口口 |----|
30
口口口口 |①---|
口口口口 |----|
口口①① |----|
口口口口 |----|
31
口口口口 |①---|
口口口口 |----|
①②口口 |②---|
口口口口 |----|
32
口口口口 |①---|
口口口口 |----|
口口口口 |----|
口口①① |----|
33
口①①口 |①---|
②口口② |----|
口口口口 |②---|
口口口口 |----|
34
口口口口 |①---|
口口口口 |----|
①口口① |②---|
口②②口 |----|
35
口口口口 |①---|
①②③④ |②---|
口口口口 |③---|
口口口口 |④---|
36
口口口① |①---|
口口口口 |----|
口口口口 |----|
口口口口 |----|
37
口口口口 |①---|
口口口口 |②---|
①②③④ |③---|
口口口口 |④---|
38
口口口口 |①---|
口口口① |----|
口口口口 |----|
口口口口 |----|
39
口口口口 |①---|
①②③④ |②---|
口口口口 |③---|
口口口口 |④---|
40
口口口① |①---|
口②②口 |----|
口口口口 |②---|
口口口口 |----|
41
口口口口 |①---|
口口口口 |----|
口①①口 |----|
口口口口 |----|
42
口口口口 |①---|
①口口① |----|
口口口口 |----|
口口口口 |----|
43
①②③④ |①---|
口口口口 |②---|
口口口口 |③---|
口口口口 |④---|
44
口口口口 |①---|
口①①口 |----|
口②②口 |②---|
口③③口 |③---|
45
④③②① |①---|
口口口口 |②---|
口口口口 |③---|
口口口口 |④---|
46
口口口口 |①---|
①②③口 |②---|
口口口口 |③---|
口口口口 |----|
47
口口口口 |①---|
①②③④ |②---|
口口口口 |③---|
口口口口 |④---|
48
口②②口 |①---|
口③③口 |----|
口①①口 |②---|
口口口口 |③---|
49
口口口口 |①---|
口口口口 |②---|
①②③④ |③---|
口口口口 |④---|
50
口口口口 |①---|
④③②① |②---|
口口口口 |③---|
口口口口 |④---|
51
①②③④ |①---|
口口口口 |②---|
口口口口 |③---|
口口口口 |④---|
52
口口口口 |①---|
口①①口 |----|
口②②口 |②---|
口③③口 |③---|
53
④③②① |①---|
口口口口 |②---|
口口口口 |③---|
口口口口 |④---|
54
口口口口 |①---|
①②③口 |②---|
口口口口 |③---|
口口口口 |----|
55
口口口口 |①---|
①②③④ |②---|
口口口口 |③---|
口口口口 |④---|
56
口②②口 |①---|
口③③口 |----|
口①①口 |②---|
口口口口 |③---|
57
口口口口 |①---|
口口口口 |②---|
①②③④ |③---|
口口口口 |④---|
58
口口口口 |①---|
④③②① |②---|
口口口口 |③---|
口口口口 |④---|
59
①口口② |①---|
口口口口 |----|
口口口口 |②---|
口口口口 |----|
60
口口口口 |①---|
口①①口 |----|
②口口② |②---|
口口口口 |----|
61
口口口口 |①---|
①口口② |----|
口口口口 |②---|
口口口口 |----|
62
口口口口 |①---|
口口口口 |----|
口①①口 |②---|
②口口② |----|
63
①口口② |①---|
口口口口 |----|
口口口口 |②---|
口口口口 |----|
64
口口口口 |①---|
口①①口 |----|
②口口② |②---|
口口口口 |----|
65
口口口口 |①---|
①口口② |----|
口口口口 |②---|
口口口口 |----|
66
口口口口 |①---|
②口口② |----|
口①①口 |②---|
口口口口 |----|
67
口口口口 |①---|
口口口口 |----|
①口口② |②---|
口口口口 |----|
68
口口口口 |①---|
口③③口 |----|
②④④② |②---|
口①①口 |③-④-|


不确定度: 0

最終更新:2012年11月08日 04:20