キケンな果実
達見 恵 featured by 佐野宏晃

EXTREME

Level: 9
BPM: 174
Notes: 688

1
口口口口 |----|
口口口口 |----|
口口口口 |----|
口口口口 |----|
2
口口口口 |----|
口①①口 |----|
口口口口 |----|
口口口口 |①---|
3
⑤⑦口口 |①-②-|
⑥口口⑧ |③-④-|
③④口⑧ |⑤-⑥-|
①②口口 |⑦-⑧-|
4
③口口③ |--①-|
口口口④ |②-③-|
口口②⑤ |--④-|
口口①⑥ |⑤-⑥-|
5
⑤⑦口⑧ |①-②-|
⑥口口⑧ |③-④-|
③④口口 |⑤-⑥-|
①②口口 |⑦-⑧-|
6
④口②口 |--①-|
口③③口 |②-③-|
口口①⑤ |--④-|
口口口⑤ |⑤---|
7
⑤⑦口口 |①-②-|
⑥口口⑧ |③-④-|
③④口⑧ |⑤-⑥-|
①②口口 |⑦-⑧-|
8
③口④③ |--①-|
⑤口口口 |②-③-|
口口②⑥ |--④-|
口口①口 |⑤-⑥-|
9
③③口口 |①-②-|
口口口口 |③---|
口口②口
口①口口

口口口口
口⑤⑥口
⑦⑧⑨⑩ |④-⑤⑥|
口口④④ |⑦⑧⑨⑩|
10
①①②② |①--②|
④口口⑤ |--③-|
④口口⑤ |④--⑤|
⑥③③⑥ |--⑥-|
11
口口④④ |--①②|
⑤①口口 |③-④-|
口②口⑥ |--⑤-|
⑦③口口 |⑥-⑦-|
12
口口口口 |①---|
口口①口 |----|
口口①口
口口口口

口口口③
②口③口
口②口口 |②---|
口口口口 |③---|
13
口口口口 |①---|
③口口② |----|
①③②口 |②---|
口①口口 |③---|
14
口①①口 |①---|
口口③口 |----|
口②口口 |--②-|
口④④口 |③-④-|
15
口口口口 |----|
口口口口 |----|
口②口口 |----|
①口口口 |①-②-|
16
③③①① |①---|
口④④口 |②-③-|
口口口口 |----|
口口口② |④---|
17
口口口口 |①---|
①②②① |----|
口口口口 |②---|
口③③口 |③---|
18
口口口口 |①---|
口口口口 |----|
口①①口
口口口口

口③③口
口口口口
②④④② |②---|
口口口口 |③-④-|
19
口口口口 |----|
口口口口 |----|
口③口口 |--①②|
口③②① |③---|
20
口①①口 |①---|
口口④② |②---|
口口③① |③---|
③④口口 |④---|
21
口口④③ |①---|
④②口口 |②---|
③①口口 |③---|
口口①① |④---|
22
④⑥⑤口 |①---|
口口⑤② |②---|
口口③① |③-④-|
①口口口 |⑤-⑥-|
23
④⑤口口 |①---|
④②口口 |②---|
③①口口 |③---|
口口口口 |④-⑤-|
24
口⑤③口 |①---|
口口⑤② |②-③-|
口口④① |④---|
②口口① |⑤---|
25
口口口④ |①---|
④②口口 |②---|
③①口口 |③---|
口口①③ |④---|
26
①口口口 |①---|
口口口② |②---|
口口口①
口口口口

⑤口④口
口口④口
口口③⑥ |③---|
口③口口 |④-⑤⑥|
27
⑩③口⑥ |①②③④|
⑦⑨口② |⑤⑥⑦⑧|
⑩⑤⑧口 |⑨-⑩-|
①口④口 |----|
28
④⑥口④ |①---|
口③口口 |②-③-|
口口②口 |④-⑤-|
①口⑤① |⑥---|
29
口口口口 |①-②-|
口④口口 |③-④-|
口口③口
①②口①

口⑦口口
⑤口口⑤
口口口口 |⑤-⑥-|
⑧口⑥口 |⑦-⑧-|
30
⑥口口⑥ |①-②-|
口④口口 |③-④-|
⑤口③⑤ |--⑤-|
口②口① |⑥---|
31
口口口口 |①-②-|
口④口口 |③-④-|
口口③口
①②口①

⑤口口⑤
口口口口
口口口口 |⑤-⑥-|
⑦口⑥⑦ |⑦---|
32
③口口③ |①---|
①口口① |②-③-|
②口口②
口口口口

口口口口
⑤口口⑤
口口口口 |--④-|
口口④口 |⑤---|
33
口⑦口口 |①-②-|
口④口口 |③-④-|
①口③① |⑤-⑥-|
⑤②⑥⑤ |⑦---|
34
⑥口口⑥ |①-②-|
口④⑦口 |③-④-|
①口③① |--⑤-|
⑤②口⑤ |⑥-⑦-|
35
⑧⑦⑥⑤ |①-②-|
⑫⑪⑩⑨ |③-④-|
①④③① |⑤⑥⑦⑧|
口②口口 |⑨⑩⑪⑫|
36
⑥③④④ |①---|
口口口口 |②-③-|
口口口口 |④-⑤-|
⑤②①① |⑥---|
37
⑦④口口 |①-②-|
口③①① |③-④-|
口②⑤⑤ |⑤-⑥-|
⑥口口口 |⑦---|
38
⑦④⑥⑥ |①-②-|
口③口口 |③-④-|
口②⑤⑤ |--⑤-|
口口①① |⑥-⑦-|
39
口口口口 |①---|
口口口口 |②---|
②②口口
口口①①

④④③③
口口口口
口口口口 |③---|
③③④④ |④---|
40
⑦⑦③③ |①-②-|
①口⑤口 |③-④-|
①⑥⑧② |⑤-⑥-|
④④⑧口 |⑦-⑧-|
41
⑦⑦⑤口 |①-②-|
①④口② |③-④-|
①④口口 |⑤-⑥-|
③⑥⑧口 |⑦-⑧-|
42
口⑩③⑦ |①-②-|
⑥④⑨① |③-④-|
口口⑤① |⑤-⑥⑦|
②⑧口⑪ |⑧⑨⑩⑪|
43
③口口口 |①--②|
③口口② |--③-|
①口口② |----|
①口口口 |----|
44
口①①口 |①---|
口口口② |②-③-|
①口口①
③③口②

⑤⑦口⑥
⑦⑤口口
口口④口 |④-⑤-|
口口口口 |⑥-⑦-|
45
口⑥⑥口 |①-②-|
口口③⑦ |③-④-|
②④⑤⑧ |⑤-⑥-|
④②口① |⑦-⑧-|
46
①口口口 |①-②-|
①口③口 |③-④-|
④④③口
口口②口

⑧⑧⑤口
口口口口
口口口⑥ |⑤-⑥-|
⑦口口⑥ |⑦-⑧-|
47
口口④① |①-②-|
口②④① |③-④-|
口②③口
口口口口

口口口口
口口口⑧
⑤口口⑦ |⑤-⑥-|
口⑥⑥口 |⑦-⑧-|
48
①口③③ |①-②-|
①口口口 |③-④-|
④④②口
口口口口

⑧口口口
口⑧口口
口口口⑥ |⑤-⑥-|
⑦口⑥⑤ |⑦-⑧-|
49
⑦③①② |①-②-|
口⑧②⑤ |③-④-|
④⑧口口 |⑤-⑥-|
口④⑥⑥ |⑦-⑧-|
50
口⑤⑦口 |①-②-|
⑤口①⑦ |③-④-|
②口①③ |⑤---|
④④⑥⑥ |⑥-⑦-|
51
③口口④ |--①-|
②⑤⑤口 |②-③-|
①⑥⑥① |④-⑤-|
口⑦⑦口 |⑥-⑦-|
52
口①①② |①---|
③③口② |②-③-|
①口口①
口口口口

口⑥口口
口口口口
⑦⑦⑤口 |④-⑤-|
口口⑤④ |⑥-⑦-|
53
②口①口 |①-②-|
口②④① |③-④-|
口口口③
口口④口

⑧⑤口口
⑦口口口
⑥口口口 |⑤-⑥-|
口⑥口口 |⑦-⑧-|
54
口④④① |①---|
口口口① |②-③-|
③口口② |--④-|
③⑥⑤② |⑤-⑥-|
55
①③③① |①-②-|
口口口口 |--③-|
口口口口
②口口②

口口口口
口⑤⑤口
口④④口 |--④-|
⑤口口⑤ |--⑤-|
56
⑥口口③ |①-②-|
⑤口⑧② |③-④-|
④口⑦① |⑤-⑥-|
⑦①④口 |⑦-⑧-|
57
口④①口 |①-②-|
口③口口 |③-④-|
口②口口
口口口②

⑦口口⑦
⑤口口⑤
口⑦⑦口 |⑤--⑥|
口⑥⑥口 |--⑦-|
58
②②①① |----|
口口口口 |----|
口口口口 |--①-|
口③③口 |②-③-|
59
②口口口 |----|
②口口口 |----|
口口口① |----|
口口口① |①-②-|
60
口②④口 |①-②-|
口口①① |③-④-|
③口④口
口③口口

口口口口
⑥⑥口⑧
口口口⑧ |⑤-⑥-|
⑤口⑦口 |⑦-⑧-|
61
⑧①③⑦ |①-②-|
⑧④③口 |③-④-|
②②口口 |⑤-⑥-|
口⑥口⑤ |⑦-⑧-|
62
口口④口 |①-②-|
口口口④ |③-④-|
③③①①
②口口口

⑥口口口
⑥⑤⑧口
口口口⑧ |⑤-⑥-|
口口口⑦ |⑦-⑧-|
63
⑥②⑦③ |①-②-|
⑥口口④ |③-④-|
⑤②④口 |⑤-⑥-|
①口⑧⑧ |⑦-⑧-|
64
⑤⑦口口 |①-②-|
⑥口口⑧ |③-④-|
③④口⑧ |⑤-⑥-|
①②口口 |⑦-⑧-|
65
③口口③ |--①-|
口口口④ |②-③-|
口口②⑤ |--④-|
口口①⑥ |⑤-⑥-|
66
⑤⑦口⑧ |①-②-|
⑥口口⑧ |③-④-|
③④口口 |⑤-⑥-|
①②口口 |⑦-⑧-|
67
④口②口 |--①-|
口③③口 |②-③-|
口口①⑤ |--④-|
口口口⑤ |⑤---|
68
⑦③⑦③ |①-②-|
口口口口 |③-④-|
口④⑧口 |⑤-⑥-|
②①⑤⑥ |⑦-⑧-|
69
⑦③⑦③ |①-②-|
口口口口 |③-④-|
口④⑧口 |⑤-⑥-|
②①⑤⑥ |⑦-⑧-|
70
⑦③⑦③ |①-②-|
⑦口口③ |③-④-|
①④⑧⑤ |⑤-⑥-|
②口口⑥ |⑦-⑧-|
71
口③口③ |①-②-|
口④口③ |③-④-|
①②口口
口口口口

口口口口
口口口口
⑫⑪⑩⑨ |⑤⑥⑦⑧|
⑧⑦⑥⑤ |⑨⑩⑪⑫|
72
口口①① |①-②③|
⑤④③② |④⑤⑥-|
口口口口
口口⑥⑥

⑭口⑪口
口口口⑬
⑩⑨⑧⑦ |⑦⑧⑨⑩|
⑫口口口 |⑪⑫⑬⑭|
73
口④⑨③ |--①②|
⑧②⑪⑪ |③④⑤⑥|
⑪⑪⑤⑦ |⑦⑧⑨⑩|
⑩⑥口① |--⑪-|
74
口口口口 |----|
口口口口 |----|
口口口口 |----|
口口口口 |----|
75
口口口① |①---|
口口口口 |----|
口口口口 |----|
口口口口 |----|


不確定度: 0

最終更新:2013年10月24日 23:11