HEART BEAT
加藤ミリヤ

BASIC

Level: 3
BPM: 128
Notes: 161

1
口口口口 |----|
口口口口 |----|
口口口口 |----|
口口口口 |----|
2
口口口口 |----|
口口口口 |----|
口口口口 |----|
口口口口 |----|
3
口口口口 |----|
口口口口 |----|
口口口口 |----|
口口口口 |----|
4
口口口口 |----|
口口口口 |----|
口口口口 |----|
口口口口 |----|
5
口口口口 |----|
口口口口 |----|
口口口口 |----|
口口口口 |----|
6
口口口口 |①---|
口口口口 |----|
口①②口 |②---|
口口口口 |----|
7
口口口口 |①---|
口口口口 |----|
口口口① |----|
口口口口 |----|
8
口口口口 |①---|
口口口口 |----|
口②①口 |②---|
口口口口 |----|
9
口口口口 |①---|
口口口口 |----|
①口口口 |----|
口口口口 |----|
10
口口口口 |----|
口口口口 |----|
口②②口 |①---|
口①①口 |②---|
11
口口口口 |①---|
①③③① |----|
口②②口 |②---|
口口口口 |③---|
12
①口口① |①---|
口③③口 |----|
口②②口 |②---|
口口口口 |③---|
13
①①①① |①---|
②口口② |----|
口口口口 |②---|
口口口口 |----|
14
口口口口 |①---|
口口口口 |----|
①②口① |②---|
口口③口 |③---|
15
口③口口 |①---|
④口②口 |②---|
口口口① |③---|
口口口口 |④---|
16
口口口口 |①---|
口②②口 |----|
口①口口 |②---|
口口口口 |----|
17
口口口口 |①---|
口口口口 |----|
口①①口 |----|
口口口口 |----|
18
口口口口 |----|
口口口口 |----|
口口口口 |----|
口口口口 |----|
19
口口口口 |①---|
口①①口 |----|
口①①口 |----|
口口口口 |----|
20
口口口口 |----|
口口口口 |----|
口口口口 |----|
口口口口 |----|
21
口口口口 |①---|
口口口口 |----|
口①口口 |----|
口口口口 |----|
22
口口口口 |①---|
口口口口 |----|
口口①口 |----|
口口口口 |----|
23
口口口口 |①---|
口口①① |----|
口口口口 |----|
口口口口 |----|
24
口口口口 |①---|
口口口口 |----|
口口口① |②---|
口口口② |----|
25
口口口口 |①---|
口口口口 |----|
口口①口 |----|
口口口口 |----|
26
口口口口 |①---|
口口口口 |----|
口①口口 |----|
口口口口 |----|
27
口口口口 |①---|
①①口口 |----|
口口口口 |----|
口口口口 |----|
28
口口口口 |①---|
口口口口 |----|
①口口口 |②---|
②口口口 |----|
29
口口口口 |①---|
口③④口 |②---|
口①②口 |③---|
口口口口 |④---|
30
口①②口 |①---|
口③④口 |②---|
口口口口 |③---|
口口口口 |④---|
31
口口口口 |①---|
口口口口 |②---|
口①②口 |③---|
口③④口 |④---|
32
口口口口 |①---|
口口口口 |----|
①口口① |②---|
口②②口 |----|
33
口口口口 |①---|
口③④口 |②---|
口①②口 |③---|
口口口口 |④---|
34
口①②口 |①---|
口③④口 |②---|
口口口口 |③---|
口口口口 |④---|
35
口口口口 |①---|
②口口② |----|
①口口① |②---|
口口口口 |----|
36
口口口口 |①---|
口口口口 |----|
口①①口
口口口口

口口口口
口口口口
口③③口 |②---|
口②②口 |③---|
37
口口口口 |①---|
①③③① |----|
口②②口 |②---|
口口口口 |③---|
38
①口口① |①---|
口③③口 |----|
口②②口 |②---|
口口口口 |③---|
39
①①①① |①---|
②口口② |----|
口口口口 |②---|
口口口口 |----|
40
口口口口 |①---|
口口口口 |----|
①②口① |②---|
口口③口 |③---|
41
口③口口 |①---|
④口②口 |②---|
口口口① |③---|
口口口口 |④---|
42
口口口口 |①---|
口②②口 |----|
口①口口 |②---|
口口口口 |----|
43
口口口口 |①---|
口口口口 |----|
口①①口 |----|
口口口口 |----|
44
口口口口 |----|
口口口口 |----|
口②②口 |①---|
口①①口 |②---|
45
口口口口 |①---|
①③③① |----|
口②②口 |②---|
口口口口 |③---|
46
①口口① |①---|
口③③口 |----|
口②②口 |②---|
口口口口 |③---|
47
①①①① |①---|
②口口② |----|
口口口口 |②---|
口口口口 |----|
48
口口口口 |①---|
口口口口 |----|
①②口① |②---|
口口③口 |③---|
49
口③口口 |①---|
④口②口 |②---|
口口口① |③---|
口口口口 |④---|
50
口口口口 |①---|
口②②口 |----|
口①口口 |②---|
口口口口 |----|
51
口口口口 |①---|
口口口口 |----|
口①①口 |----|
口口口口 |----|
52
口口口口 |----|
口口口口 |----|
口口口口 |----|
口口口口 |----|
53
口口口口 |①---|
口①①口 |----|
口①①口 |----|
口口口口 |----|


不確定度: 0

最終更新:2013年08月17日 00:09