HEART BEAT
加藤ミリヤ

ADVANCED

Level: 5
BPM: 128
Notes: 313

1
口口口口 |----|
口口口口 |----|
口口口口 |----|
口口口口 |----|
2
口口口⑤ |①--②|
②④口① |--③-|
口口③口 |-④--|
口口口口 |⑤---|
3
⑤口口口 |①--②|
①口④② |--③-|
口③口口 |-④--|
口口口口 |⑤---|
4
口口口口 |①--②|
口口口⑤ |--③-|
②④口① |-④--|
口口③口 |⑤---|
5
口口口口 |①--②|
⑤口口口 |--③-|
①口④② |-④--|
口③口口 |⑤---|
6
口①①口 |①---|
口④⑤口 |②---|
口②②口 |③-④-|
口③⑥口 |⑤-⑥-|
7
口口口口 |--①-|
口口口口 |----|
口口口口 |----|
①口口口 |----|
8
口①①口 |①---|
口④⑤口 |②---|
口②②口 |③-④-|
口③⑥口 |⑤-⑥-|
9
口口口口 |--①-|
口口口口 |----|
口口口口 |----|
①口口口 |----|
10
口口口口 |----|
口口口口 |--①-|
①②③④ |②-③-|
⑤口口⑤ |④-⑤-|
11
口口口口 |--①-|
①口口① |--②-|
⑤④③② |③-④-|
⑥口口⑥ |⑤-⑥-|
12
⑥口口⑥ |--①-|
①④⑤① |--②-|
口②③口 |③-④-|
口口口口 |⑤-⑥-|
13
口口口口 |--①-|
①口口① |--②-|
②④④② |--③-|
③口口③ |--④-|
14
口⑤口口 |----|
①②⑤口 |--①-|
口口④③ |②-③-|
口口口口 |④-⑤-|
15
②④①③ |--①-|
③①④② |--②-|
口口口口 |--③-|
口口口口 |--④-|
16
口口①口 |--①-|
口①口口 |--②-|
口②③口 |③-④-|
口④⑤⑥ |⑤-⑥-|
17
口口口口 |----|
②①口口 |----|
口口口口 |----|
口口口口 |①-②-|
18
口口④口 |----|
口③口口 |--①-|
⑤口②⑤ |②-③-|
口①口口 |④-⑤-|
19
①口口① |--①-|
口口口口 |----|
口口口口 |----|
口口口口 |----|
20
口口口口 |----|
口口口口 |----|
口口口口 |----|
口口口口 |----|
21
口①口口 |--①-|
口口口② |--②-|
口④⑥口 |③-④-|
③口口⑤ |⑤-⑥-|
22
口口口⑦ |--①-|
①口⑥口 |②-③-|
口②⑤口 |④-⑤-|
口③④口 |⑥-⑦-|
23
口口口口 |----|
①口口口 |----|
②口口口 |--①-|
口③口口 |②-③-|
24
④口口④ |①---|
口②①口 |②---|
③②①③ |③---|
口口口口 |④---|
25
口①口口 |--①-|
口口口② |--②-|
口④⑥口 |③-④-|
③口口⑤ |⑤-⑥-|
26
口①口口 |--①-|
②口口⑦ |②-③-|
③口口⑥ |④-⑤-|
口④⑤口 |⑥-⑦-|
27
口②①口 |①-②-|
⑤口口③ |----|
口口④口 |--③-|
口口口口 |④-⑤-|
28
⑤口口⑤ |①-②-|
口④④口 |③---|
③①口③ |④---|
口口②口 |⑤---|
29
口⑥口⑦ |--①-|
口④口⑤ |②-③-|
口口②③ |④-⑤-|
口①口口 |⑥-⑦-|
30
⑥口⑦口 |--①-|
④口⑤口 |②-③-|
口②③口 |④-⑤-|
①口口口 |⑥-⑦-|
31
口口口口 |--①-|
⑦⑥⑤口 |②-③-|
口口②④ |④-⑤-|
①③口口 |⑥-⑦-|
32
⑤⑤⑥⑥ |①-②-|
口口口口 |③-④-|
口①④口 |⑤---|
口③②口 |⑥---|
33
口口口口 |--①-|
⑦口口④ |②-③-|
口⑥⑤③ |④-⑤-|
口①②口 |⑥-⑦-|
34
口④③口 |①-②-|
口②①口 |③-④-|
⑤口口⑤ |----|
口口口口 |⑤---|
35
口⑦口口 |--①-|
口⑤⑥口 |②-③-|
口③④口 |④-⑤-|
口①②口 |⑥-⑦-|
36
口口①口 |①---|
口口口口 |--②-|
②③④⑤ |③-④-|
⑥口口⑥ |⑤-⑥-|
37
口口口口 |--①-|
①口口① |--②-|
⑤④③② |③-④-|
⑥口口⑥ |⑤-⑥-|
38
⑥口口⑥ |--①-|
①④⑤① |--②-|
口②③口 |③-④-|
口口口口 |⑤-⑥-|
39
口口口口 |--①-|
①口口① |--②-|
②④④② |--③-|
③口口③ |--④-|
40
口⑤口口 |----|
①②⑤口 |--①-|
口口④③ |②-③-|
口口口口 |④-⑤-|
41
②④①③ |--①-|
③①④② |--②-|
口口口口 |--③-|
口口口口 |--④-|
42
口口①口 |--①-|
口①口口 |--②-|
口②③口 |③-④-|
口④⑤⑥ |⑤-⑥-|
43
口口口口 |----|
②①口口 |----|
口口口口 |----|
口口口口 |①-②-|
44
口口口口 |----|
口口口口 |--①-|
①②③④ |②-③-|
⑤口口⑤ |④-⑤-|
45
口口口口 |--①-|
①口口① |--②-|
⑤④③② |③-④-|
⑥口口⑥ |⑤-⑥-|
46
⑥口口⑥ |--①-|
①④⑤① |--②-|
口②③口 |③-④-|
口口口口 |⑤-⑥-|
47
口口口口 |--①-|
①口口① |--②-|
②④④② |--③-|
③口口③ |--④-|
48
②口口④ |----|
口①③口 |--①-|
口口口口 |②-③-|
口⑤⑤口 |④-⑤-|
49
②①①② |--①-|
口口④口 |--②-|
口④口口 |--③-|
③口口③ |--④-|
50
口口口口 |--①-|
口①④③ |--②-|
②⑤①口 |③-④-|
口⑥口口 |⑤-⑥-|
51
口口口口 |----|
②①口口 |----|
口口口口 |----|
口口口口 |①-②-|
52
口口④口 |----|
口③口口 |--①-|
⑤口②⑤ |②-③-|
口①口口 |④-⑤-|
53
①口口① |--①-|
口口口口 |----|
口口口口 |----|
口口口口 |----|


不確定度: 0

最終更新:2013年08月17日 00:07