HEART BEAT
加藤ミリヤ

EXTREME

Level: 8
BPM: 128
Notes: 580

1
口口口口 |----|
口口口口 |----|
口口口口 |----|
口口口口 |----|
2
口①口① |①--②|
③⑤④口 |--③-|
③⑤④口 |-④--|
②口②口 |⑤---|
3
①口①口 |①--②|
口④⑤③ |--③-|
口④⑤③ |-④--|
口②口② |⑤---|
4
口①①口 |①--②|
口口④口 |--③-|
③⑤⑤④ |-④--|
②③口② |⑤---|
5
①口③① |①--②|
④⑤⑤③ |--③-|
口④口口 |-④--|
口②②口 |⑤---|
6
①口口口 |①---|
口口口② |②---|
①口口口
口口口②

口口⑤口
口口口⑥
口④口口 |③-④-|
③口口口 |⑤-⑥-|
7
口②口口 |--①-|
口口口③ |--②-|
④口口口 |-③--|
口口①① |④---|
8
口口口① |①---|
②口口口 |②---|
口口口①
②口口口

口⑤口口
⑥口口口
口口④口 |③-④-|
口口口③ |⑤-⑥-|
9
口口②口 |--①-|
③口口口 |--②-|
口口口④ |-③--|
①①口口 |④---|
10
④③口① |----|
口⑤②⑤ |--①-|
⑤②⑤口 |②-③-|
①口③④ |④-⑤-|
11
②口口① |--①-|
①口口口 |--②-|
口口口①
①口口②

口口④⑤
⑥③⑥口
口⑥③⑥ |③-④-|
⑤④口口 |⑤-⑥-|
12
①口口口 |--①-|
口口口① |--②-|
①口口口
②②口①

⑥口⑤⑥
⑥④⑤⑥
口④③③ |③-④-|
口口口口 |⑤-⑥-|
13
口口④口 |--①-|
口②②④ |--②-|
①②②① |--③-|
①③③① |--④-|
14
口①口口 |①---|
①口口口 |--②-|
口口口口
②口②口

④口④口
⑥③口③
⑥⑤口⑤ |③-④-|
口口口⑥ |⑤-⑥-|
15
②口口口 |--①-|
口②口① |--②-|
口口①②
口①口口

口④③③
④口口口
口③④口 |--③-|
口口口口 |--④-|
16
口口口口 |--①-|
口口口① |--②-|
口口口口
口①②①

口口口口
口④③口
口⑥⑥口 |③-④-|
口⑤口口 |⑤-⑥-|
17
①①口口 |①--②|
⑤⑤②② |--③-|
口口④④ |-④--|
③③口口 |⑤---|
18
①口口① |①--②|
③口口口 |--③-|
③②②口
口口口口

口⑤⑤口
口口口④
口⑦⑦④ |④-⑤-|
⑦⑥⑥⑦ |⑥-⑦-|
19
①口口① |--①-|
口①①口 |----|
口口口口 |----|
口口口口 |----|
20
④口口口 |①---|
口③②口 |②-③-|
口口口口 |④---|
口口口① |----|
21
口口⑥⑤ |--①-|
口②④口 |--②-|
①口③② |③-④-|
口口口① |⑤-⑥-|
22
口口口⑦ |--①-|
口口⑥⑦ |②-③-|
①⑤⑥④ |④-⑤-|
②⑤口③ |⑥-⑦-|
23
口口口① |----|
口口口② |----|
口口③口 |--①-|
口口口口 |②-③-|
24
口④④口 |①-②-|
口③③口 |③-④-|
②口口②
口①①口

⑥口口⑥
口口口口
⑥⑤⑤⑥ |⑤---|
口口口口 |⑥---|
25
②②口⑤ |--①-|
口④⑥口 |--②-|
③口口口 |③-④-|
口口①① |⑤-⑥-|
26
口⑥⑦口 |--①-|
口⑥⑤⑦ |②-③-|
④②⑤① |④-⑤-|
口④③口 |⑥-⑦-|
27
口口口口 |①-②-|
①口口口 |----|
口①口口
口口②②

③③④④
口口口口
口口口口 |--③-|
口口⑤⑤ |④-⑤-|
28
③③④④ |①-②-|
②②口口 |③-④-|
口口口口
①①口口

口口口口
⑥⑥⑤⑤
⑤⑤⑥⑥ |⑤---|
口口口口 |⑥---|
29
口①③④ |--①-|
⑧⑤①⑦ |②-③④|
⑦②⑥⑧ |⑤-⑥-|
口口②口 |⑦-⑧-|
30
口口口口 |--①②|
口③口口 |③-④⑤|
口⑤②口
①口口④

⑦口口⑦
口⑨⑧⑥
⑧口口⑨ |⑥-⑦-|
口口口口 |⑧-⑨-|
31
口口口口 |--①②|
口口口口 |③-④-|
口④口口
①②③口

口⑦⑥口
⑦⑤口⑥
⑧口口口 |⑤-⑥-|
口⑧口口 |⑦-⑧-|
32
③口口② |①-②-|
口③②口 |③-④-|
口④口①
④口①口

口口⑤口
口口⑥⑥
口口⑤口 |⑤---|
口口口口 |⑥---|
33
口口口口 |--①②|
口口口口 |③-④⑤|
口④⑤口
①②③口

口口口⑦
口⑧⑧⑦
⑨口口⑥ |⑥-⑦-|
⑨口口口 |⑧-⑨-|
34
④④④④ |①-②-|
③⑤⑤③ |③-④-|
口②②口 |----|
口①①口 |⑤---|
35
口口口口 |--①-|
③口③口 |②-③-|
口②口②
①口①口

⑤④⑤④
口⑥口⑥
⑦口口⑦ |④-⑤-|
口口口口 |⑥-⑦-|
36
口口口② |①---|
口口口口 |--②-|
口口口口
②①①口

⑤④口口
口⑥③⑥
⑥③⑥口 |③-④-|
口口④⑤ |⑤-⑥-|
37
②口口① |--①-|
①口口口 |--②-|
口口口①
①口口②

口口④⑤
⑥③⑥口
口⑥③⑥ |③-④-|
⑤④口口 |⑤-⑥-|
38
①口口口 |--①-|
口口口① |--②-|
①口口口
②②口①

⑥口⑤⑥
⑥④⑤⑥
口④③③ |③-④-|
口口口口 |⑤-⑥-|
39
口口④口 |--①-|
口②②④ |--②-|
①②②① |--③-|
①③③① |--④-|
40
口①口口 |①---|
①口口口 |--②-|
口口口口
②口②口

④口④口
⑥③口③
⑥⑤口⑤ |③-④-|
口口口⑥ |⑤-⑥-|
41
②口口口 |--①-|
口②口① |--②-|
口口①②
口①口口

口④③③
④口口口
口③④口 |--③-|
口口口口 |--④-|
42
口口口口 |--①-|
口口口① |--②-|
口口口口
口①②①

口口口口
口④③口
口⑥⑥口 |③-④-|
口⑤口口 |⑤-⑥-|
43
①①口口 |①--②|
⑤⑤②② |--③-|
口口④④ |-④--|
③③口口 |⑤---|
44
①口口① |①--②|
口口口口 |--③-|
③②②口
口③口口

⑦⑤④⑦
⑤口口④
口口口⑥ |④-⑤-|
口口⑥口 |⑥-⑦-|
45
⑥⑥⑥⑥ |--①-|
②③⑤④ |--②-|
②③⑤④ |③-④-|
①口口① |⑤-⑥-|
46
口口口口 |--①-|
口口口口 |--②-|
②口口口
①①①①

口口⑥口
⑥④口⑤
口口③⑥ |③-④-|
口⑥口口 |⑤-⑥-|
47
口②④④ |--①-|
口③①② |--②-|
②①③口 |--③-|
口口②口 |--④-|
48
口②口口 |①---|
口口口口 |--②-|
①①口口
口口②口

口口⑤口
③口口④
④⑥⑥③ |③-④-|
口⑤口口 |⑤-⑥-|
49
①②②① |--①-|
②①①② |--②-|
口口口口
口口口口

口口口口
口口④口
③④口③ |--③-|
口③③④ |--④-|
50
②口口口 |--①-|
①口口② |--②-|
口口①口
①口口口

口③④⑤
⑤④③口
口⑥口⑥ |③-④-|
口口⑥口 |⑤-⑥-|
51
①口口口 |①--②|
⑤⑤②口 |--③-|
口口④④ |-④--|
③③口口 |⑤---|
52
口口口① |①--②|
③口口口 |--③-|
③②口口
口口口口

口⑤⑤口
口口口④
口⑦⑦④ |④-⑤-|
⑦⑥⑥⑦ |⑥-⑦-|
53
①口口① |--①-|
口①①口 |--②-|
口④口③ |--③-|
口口②口 |--④-|
54
口口口③ |--①-|
①口②口 |--②-|
口口口口 |--③-|
口口口口 |----|


不確定度: 0

最終更新:2013年08月17日 00:07