GOLD
UVERworld

BASIC

Level: 3
BPM: 185
Notes: 183

全程BPM在185附近飄忽不定
1
口口口口 |----|
口口口口 |----|
口口口口 |----|
口口口口 |----|
2
①②③口 |----|
口口口口 |①---|
口口口口 |②---|
口口口口 |③---|
3
口口口口 |①---|
口口口口 |----|
口①①口 |----|
口口口口 |----|
4
口口口口 |①---|
口①①口 |----|
口口口口 |----|
口口口口 |----|
5
口口口口 |①---|
口口口口 |----|
口①①口 |----|
口口口口 |----|
6
口口口口 |①---|
口①①口 |----|
口口口口 |----|
口口口口 |----|
7
口口口口 |①---|
口口口口 |----|
口①①口 |----|
口口口口 |----|
8
口口口口 |①---|
口①①口 |----|
口口口口 |----|
口口口口 |----|
9
口口口口 |①---|
口口口口 |----|
口①①口 |----|
口口口口 |----|
10
口口口口 |①---|
口①①口 |----|
口口口口 |----|
口口口口 |----|
11
口口口口 |①---|
口口②① |----|
口口口口 |②---|
口口口口 |----|
12
口口口口 |①---|
②口口口 |----|
口①口口 |②---|
口口口口 |----|
13
口①口口 |①---|
口口②口 |----|
口口口口 |②---|
口口口口 |----|
14
口口口口 |----|
口口口口 |①---|
口口口口 |----|
口①①口 |----|
15
口口口口 |①---|
①②口口 |----|
口口口口 |②---|
口口口口 |----|
16
口口口口 |①---|
口口口② |----|
口口①口 |②---|
口口口口 |----|
17
口口①口 |①---|
口②口口 |----|
口口口口 |②---|
口口口口 |----|
18
口口口口 |----|
口口口口 |①---|
口口口口 |----|
口①①口 |----|
19
口口口口 |----|
口口口口 |----|
口①①口 |----|
口口口口 |①---|
20
①②口口 |①---|
口口口口 |----|
口口口口 |②---|
口口口口 |----|
21
口口①② |①---|
口口口口 |----|
口口口口 |②---|
口口口口 |----|
22
口口口口 |①---|
口口②① |----|
口口口口 |②---|
口口口口 |----|
23
口口口口 |①---|
②①口口 |----|
口口口口 |②---|
口口口口 |----|
24
口口口口 |①---|
口口口口 |----|
①②口口 |②---|
口口口口 |----|
25
口口口口 |①---|
口口口口 |----|
口口①② |②---|
口口口口 |----|
26
口口口口 |①---|
口口口口 |----|
口口口口 |②---|
口口②① |----|
27
口口口口 |①---|
口口口口 |----|
口口口口 |②---|
②①口口 |----|
28
口口口口 |①---|
口①②口 |----|
口口口口 |②---|
口口口口 |----|
29
口口口口 |①---|
口口口口 |----|
口口口① |----|
口口口口 |----|
30
口口口口 |①---|
口②①口 |----|
口口口口 |②---|
口口口口 |----|
31
口口口口 |①---|
口口口口 |----|
①口口口 |②---|
口②口口 |----|
32
口口口口 |①---|
口①②口 |----|
口口口口 |②---|
口口口口 |----|
33
口口口口 |①---|
口口口口 |----|
口口口① |②---|
口口②口 |----|
34
口口口口 |①---|
口②②口 |----|
口①①口 |②---|
口口口口 |----|
35
口口口口 |①---|
口口口口 |②---|
口①②口 |----|
口口口口 |----|
36
口口②口 |①---|
口口口① |----|
口口口口 |②---|
口口口口 |----|
37
口口口口 |①---|
口①口口 |----|
口口②口 |②---|
口口口口 |----|
38
口口②口 |①---|
口口口① |----|
口口口口 |②---|
口口口口 |----|
39
口口口口 |①---|
口①口口 |----|
口口②口 |②---|
口口口口 |----|
40
口②口口 |①---|
①口口口 |----|
口口口口 |②---|
口口口口 |----|
41
口口口口 |①---|
口口①口 |----|
口②口口 |②---|
口口口口 |----|
42
口②口口 |①---|
①口口口 |----|
口口口口 |②---|
口口口口 |----|
43
口口①口 |①---|
口口口口 |----|
口②②口 |②---|
口口口口 |----|
44
口口口口 |①---|
②口①口 |----|
口口口口 |②---|
口口口口 |----|
45
口口口口 |①---|
口②口口 |----|
口①口口 |②---|
口口口口 |----|
46
口口口口 |①---|
口口②口 |----|
口口①口 |②---|
口口口口 |----|
47
口口口口 |①---|
口口口口 |----|
口②②口 |②---|
口①①口 |----|
48
口口口口 |①---|
口②口① |----|
口口口口 |②---|
口口口口 |----|
49
口口口口 |①---|
口口②口 |----|
口口①口 |②---|
口口口口 |----|
50
口口口口 |①---|
口②口口 |----|
口①口口 |②---|
口口口口 |----|
51
口①①口 |①---|
③口口口 |--②-|
口②口口 |----|
口口口口 |③---|
52
口①①口 |①---|
口口口③ |--②-|
口口②口 |----|
口口口口 |③---|
53
口①①口 |①---|
口口口口 |----|
口②②口 |②---|
口口口口 |----|
54
口口口口 |①---|
口口口口 |----|
①②口口 |②---|
口口口口 |----|
55
口口口口 |①---|
口口口② |----|
口口①口 |②---|
口口口口 |----|
56
口①①口 |①---|
口③口口 |----|
口口②口 |②---|
口口口口 |③---|
57
①口口① |①---|
口口口口 |----|
口②②口 |②---|
口口口口 |----|
58
口口口口 |①---|
口口口口 |----|
口口②① |②---|
口口口口 |----|
59
口口口口 |①---|
口口口口 |----|
口口口口 |----|
①①口口 |----|
60
口口口口 |①---|
口①②口 |----|
口口口口 |②---|
口口口口 |----|
61
口口口口 |①---|
口口口口 |----|
口口口① |②---|
口口②口 |----|
62
口口口口 |①---|
口②①口 |----|
口口口口 |②---|
口口口口 |----|
63
口口口口 |①---|
口口口口 |----|
①口口口 |②---|
口②口口 |----|
64
口口口口 |①---|
口口口口 |----|
口口②口 |②---|
口口口① |----|
65
②口口口 |①---|
口①口口 |----|
口口口口 |②---|
口口口口 |----|
66
口口口口 |①---|
口口口口 |----|
口②口口 |②---|
①口口口 |----|
67
口口口② |①---|
口口①口 |----|
口口口口 |②---|
口口口口 |----|
68
口口口口 |①---|
口②①口 |----|
口口口口 |②---|
口口口口 |----|
69
口口口口 |①---|
口口口口 |----|
①口口口 |②---|
口②口口 |----|
70
口口口口 |①---|
口②口口 |----|
口口①口 |②---|
口口口口 |----|
71
口口口口 |----|
口口口口 |①---|
口口口口 |----|
口①①口 |----|
72
口口口口 |①---|
口①②口 |----|
口口口口 |②---|
口口口口 |----|
73
口口口口 |①---|
口口口口 |----|
口口口① |②---|
口口②口 |----|
74
口口口口 |①---|
口口②口 |----|
口①口口 |②---|
口口口口 |----|
75
口口口口 |----|
口口口口 |①---|
口口口口 |----|
口①①口 |----|
76
口口②① |①---|
口口口口 |----|
口口口口 |②---|
口口口口 |----|
77
②①口口 |①---|
口口口口 |----|
口口口口 |②---|
口口口口 |----|
78
口口口口 |①---|
①②口口 |----|
口口口口 |②---|
口口口口 |----|
79
口口口口 |①---|
口口①② |----|
口口口口 |②---|
口口口口 |----|
80
口口口口 |①---|
口口口口 |----|
口口②① |②---|
口口口口 |----|
81
口口口口 |①---|
口口口口 |----|
②①口口 |②---|
口口口口 |----|
82
口口口口 |①---|
口口口口 |----|
口口口口 |②---|
①②口口 |----|
83
口口口口 |①---|
口口口口 |----|
口口口口 |②---|
口口①② |----|
84
口口口口 |----|
口口口口 |----|
口口口口 |----|
口口口口 |----|
85
口口口口 |----|
口口口口 |----|
口口口口 |----|
口口口口 |----|
86
口口口口 |①---|
口①②口 |----|
口口口口 |②---|
口口口口 |----|
87
口口口口 |①---|
口口口口 |----|
口②①口 |②---|
口口口口 |----|


不確定度: 0

最終更新:2013年08月17日 00:00