GOLD
UVERworld

ADVANCED

Level: 7
BPM: 185
Notes: 528

全程BPM在185附近飄忽不定
1
口口口口 |----|
口口口口 |----|
口口口口 |----|
口口口口 |----|
2
口③口口 |----|
④口口② |①---|
口口口口 |②---|
口①口口 |③-④-|
3
口口③① |①---|
口口口④ |②---|
口口⑤② |③-④-|
口口口⑥ |⑤-⑥-|
4
口②②口 |--①-|
③口①③ |----|
口口口口 |②---|
口口口口 |③---|
5
①③口口 |①---|
④口口口 |②---|
②⑤口口 |③-④-|
⑥口口口 |⑤-⑥-|
6
口口②口 |--①-|
口①③口 |②---|
口④口口 |③-④-|
口口口⑤ |--⑤-|
7
口口③① |①---|
口口口④ |②---|
口口⑤② |③-④-|
口口口⑥ |⑤-⑥-|
8
②②口口 |--①-|
口口①口 |②---|
口口口口 |----|
口口③口 |③---|
9
口④②口 |①---|
⑤口口③ |②-③-|
①⑥口口 |④-⑤-|
⑦口口口 |⑥-⑦-|
10
④口口④ |--①-|
③①口③ |----|
②口口② |②--③|
口口口口 |--④-|
11
口口口口 |①---|
口①③口 |②---|
口口口口 |③---|
口④②口 |④---|
12
②口口② |①---|
口③④口 |--②-|
①口⑤① |--③-|
口口口口 |④-⑤-|
13
口口口口 |①---|
①口口① |--②-|
②口口②
口口口口

口③口口
口口④④
口口口口 |----|
口口口口 |③--④|
14
口口口口 |----|
口口口口 |①---|
口口口口 |----|
①①①① |----|
15
口口口口 |①---|
口③①口 |②---|
口口口口 |③---|
口②④口 |④---|
16
②口口② |①---|
口④③口 |--②-|
①⑤口① |--③-|
口口口口 |④-⑤-|
17
口口口口 |①---|
①口口① |--②-|
②口口②
口口口口

口口③口
④④口口
口口口口 |----|
口口口口 |③--④|
18
口口口口 |----|
口口口口 |①---|
口口口口 |----|
①①①① |----|
19
⑥口①⑥ |①-②-|
⑤②口⑤ |③-④-|
口口③口 |--⑤-|
口④口口 |⑥---|
20
口口①口 |①-②-|
口③②⑧ |③-④-|
口④⑤⑦ |⑤-⑥-|
口口⑥口 |⑦-⑧-|
21
口①口口 |--①-|
⑥口②口 |--②-|
口④③口 |③-④-|
口⑤口口 |⑤-⑥-|
22
口①口口 |①-②-|
⑧②③口 |③-④-|
⑦⑤④口 |⑤-⑥-|
口⑥口口 |⑦-⑧-|
23
口口①口 |--①-|
口②口⑥ |--②-|
口③④口 |③-④-|
口口⑤口 |⑤-⑥-|
24
口口①口 |①-②-|
口③②⑧ |③-④-|
口④⑤⑦ |⑤-⑥-|
口口⑥口 |⑦-⑧-|
25
口①口口 |--①-|
⑥口②口 |--②-|
口④③口 |③-④-|
口⑤口口 |⑤-⑥-|
26
口①口口 |①-②-|
⑧②③口 |③-④-|
⑦⑤④口 |⑤-⑥-|
口⑥口口 |⑦-⑧-|
27
口口①口 |--①-|
口②口⑥ |--②-|
口③④口 |③-④-|
口口⑤口 |⑤-⑥-|
28
口①⑤⑤ |①-②-|
④口②口 |③-④-|
口口⑥③ |--⑤-|
口口口口 |--⑥-|
29
③③口口 |①-②-|
口口④口 |③---|
②⑤口口 |--④-|
⑥①口口 |⑤-⑥-|
30
⑤②②口 |①---|
①口⑥③ |②---|
口④口口 |③-④-|
口口口口 |⑤-⑥-|
31
口④④口 |①-②-|
①口口口 |③-④-|
口口口口 |----|
②口③口 |----|
32
①⑧口④ |①-②-|
⑦②⑤口 |③-④-|
口⑥③口 |⑤-⑥-|
口口口口 |⑦-⑧-|
33
口口口口 |①-②-|
口④④① |③-④-|
口⑥②口 |--⑤-|
口③⑦⑤ |⑥-⑦-|
34
口口口口 |①---|
②口口② |----|
①口口① |②---|
口口口③ |--③-|
35
④口⑤口 |①-②-|
口③③口 |③---|
口口①口 |----|
口②口口 |④-⑤-|
36
口⑥口口 |①---|
口口③② |②-③-|
⑤①口口 |--④-|
口口④口 |⑤-⑥-|
37
口口口① |①-②-|
口口④口 |③-④-|
口③口② |----|
⑤口口口 |--⑤-|
38
⑤口口口 |①---|
口口③② |②-③-|
口④口口 |--④-|
口①口口 |--⑤-|
39
口①②③ |①-②-|
口口口口 |③-④-|
口⑥口⑤ |----|
口④④口 |⑤-⑥-|
40
②口①④ |①-②-|
口③口口 |③-④-|
口口口口
口口口口

口口⑦口
口口口口
口⑥口口 |--⑤-|
口口口⑤ |⑥-⑦-|
41
①⑤口口 |①-②-|
口④⑥口 |③-④-|
②口③口 |----|
口口口口 |⑤-⑥-|
42
口口口口 |①---|
口④口口 |②-③-④-|
②口③口
口①①口

口口口⑤
⑥口口口
口口口⑦ |⑤-⑥-|
⑧⑧口口 |⑦-⑧-|
43
②口口口 |----|
②①①口 |----|
口①①② |①-②-|
口口口② |----|
44
口①⑤口 |①-②-|
口口口④ |③-④-|
②⑥口口 |⑤---|
口口③口 |⑥---|
45
⑤口口④ |①-②-|
口③口口 |③-④-|
口口②口 |----|
口①口口 |⑤---|
46
口④口口 |①---|
口口口③ |②-③-|
①口②口 |----|
口口口口 |④---|
47
口口③口 |①---|
口口口口 |--②-|
口②②口 |----|
口①①口 |--③-|
48
口④口⑤ |①-②-|
③口口口 |③-④-|
口口⑥① |⑤---|
口②口口 |⑥---|
49
口口④口 |①---|
口③口口 |--②-|
②口口② |----|
①口口① |③-④-|
50
③口口③ |①---|
口口口口 |--②-|
口②②口 |----|
口①①口 |③---|
51
口口口口 |①---|
口口口口 |--②-|
口③口口 |----|
①口②① |③---|
52
①口口① |①---|
①口口① |--②-|
口口③口 |----|
口②口口 |③---|
53
①口口① |①---|
①口口① |----|
口③口口 |②---|
②②②② |--③-|
54
④口口④ |①---|
口③①口 |②-③-|
口口②⑤ |--④-|
⑤口口口 |--⑤-|
55
口口口口 |--①-|
口②②口 |--②-|
①口④口 |--③-|
口③口① |④---|
56
①⑤口① |①---|
①口④① |--②-|
口③口口 |③-④-|
②口口口 |⑤---|
57
①口口① |①---|
①口口① |----|
口口③口 |②---|
②②②② |--③-|
58
④口口④ |①---|
口①③口 |②-③-|
⑤②口⑤ |--④-|
口口口口 |--⑤-|
59
口②口口 |--①-|
口口③口 |----|
口口口④ |--②-|
口①①口 |③-④-|
60
口口②口 |①-②-|
④口口口 |③-④-|
①口③口 |⑤---|
口⑤⑤口 |----|
61
①口③① |①---|
②口口② |--②-|
口口口口 |----|
口口口口 |--③-|
62
口④口口 |①-②-|
口①口口 |③-④-|
②⑤口③ |⑤---|
口口口口 |----|
63
①口口① |①---|
②口口② |--②-|
口③③口 |----|
口口口口 |--③-|
64
口口口口 |①---|
口①①口 |----|
口口口口 |②---|
②口口② |----|
65
口口口口 |①---|
①口口① |----|
口口口口 |②---|
③②②③ |--③-|
66
口口口口 |①---|
口②②口 |----|
①口口① |②---|
口口口口 |----|
67
②口口② |①---|
口②②口 |----|
口口口口 |②---|
口①①口 |----|
68
口口口口 |①---|
②口口④ |②---|
口①③口 |③---|
口口口口 |④---|
69
①口口① |①---|
口口口口 |--②-|
②口口② |--③-|
口④⑤③ |④-⑤-|
70
③①①③ |①---|
④口口④ |--②-|
口②②口 |----|
口口口口 |③-④-|
71
口口口口 |----|
口口口口 |①---|
口口口口 |----|
①①①① |----|
72
口口口口 |①---|
④口口② |②---|
口③①口 |③---|
口口口口 |④---|
73
①口口① |①---|
口口口口 |--②-|
②口口② |--③-|
③⑤④口 |④-⑤-|
74
③①①③ |①---|
口④④口 |--②-|
口②②口 |----|
口口口口 |③--④|
75
③口口③ |----|
口口口口 |①---|
②口口② |--②-|
①①①① |③---|
76
口口①口 |①-②-|
口③②⑧ |③-④-|
口④⑤⑦ |⑤-⑥-|
口口⑥口 |⑦-⑧-|
77
口①口口 |--①-|
⑥口②口 |--②-|
口④③口 |③-④-|
口⑤口口 |⑤-⑥-|
78
口①口口 |①-②-|
⑧②③口 |③-④-|
⑦⑤④口 |⑤-⑥-|
口⑥口口 |⑦-⑧-|
79
口口①口 |--①-|
口②口⑥ |--②-|
口③④口 |③-④-|
口口⑤口 |⑤-⑥-|
80
口口①口 |①-②-|
口③②⑧ |③-④-|
口④⑤⑦ |⑤-⑥-|
口口⑥口 |⑦-⑧-|
81
口①口口 |--①-|
⑥口②口 |--②-|
口④③口 |③-④-|
口⑤口口 |⑤-⑥-|
82
口①口口 |①-②-|
⑧②③口 |③-④-|
⑦⑤④口 |⑤-⑥-|
口⑥口口 |⑦-⑧-|
83
口口①口 |--①-|
口②口⑥ |--②-|
口③④口 |③-④-|
口口⑤口 |⑤-⑥-|
84
口口口口 |----|
口口口口 |----|
口口口口 |----|
口口口口 |----|
85
口口口口 |----|
口口口口 |----|
口口口口 |----|
口口口口 |----|
86
①②③④ |①-②-|
⑧⑦⑥⑤ |③-④-|
口口口口 |⑤-⑥-|
口口口口 |⑦-⑧-|
87
口口口口 |①-②-|
口口口口 |③-④-|
①②③④ |⑤-⑥-|
⑧⑦⑥⑤ |⑦-⑧-|


不確定度: 0

最終更新:2013年08月16日 23:59