GOLD
UVERworld

EXTREME

Level: 10
BPM: 185
Notes: 879

全程BPM在185附近飄忽不定
1
口口口口 |----|
口口口口 |----|
口口口口 |----|
口口口口 |----|
2
③①④④ |----|
③③④② |①---|
口③③④ |②---|
②①④④ |③-④-|
3
口②口口 |①---|
口口口口 |②---|
①口口口
口②口口

口口口口
⑤口口③
⑥④④⑥ |③-④-|
③口口⑤ |⑤-⑥-|
4
口口口口 |--①-|
口①①口 |----|
③②②③ |②---|
口②②口 |③---|
5
①①①① |①---|
⑤②②③ |②---|
⑥④④⑥ |③-④-|
③口口⑤ |⑤-⑥-|
6
⑤②②⑤ |--①-|
④③③④ |②---|
⑥③③⑥ |③-④-|
口①①口 |⑤-⑥-|
7
口②②口 |①---|
⑤口口③ |②---|
⑥④④⑥ |③-④-|
③①①⑤ |⑤-⑥-|
8
③口②③ |--①-|
口②口口 |②---|
口④④口 |③---|
口①①口 |④---|
9
口口口口 |①---|
口③③口 |②-③-|
①口口①
口②②口

口口口口
⑥口口④
⑦⑤⑤⑦ |④-⑤-|
④口口⑥ |⑥-⑦-|
10
口②②口 |--①-|
口③③口 |----|
口④④口 |②--③|
口①①口 |--④-|
11
②口口② |①---|
口③③口 |②---|
①口口① |③---|
①④④① |④---|
12
④②①⑤ |①---|
①③口② |--②-|
口②①口 |--③-|
④口③⑤ |④-⑤-|
13
③口②④ |①---|
①口①口 |--②-|
口②口② |----|
④①口③ |③--④|
14
口①①口 |----|
口①口口 |①---|
口口①口 |----|
口①①口 |----|
15
②口口② |①---|
口③③口 |②---|
①口口① |③---|
①④④① |④---|
16
④②①⑤ |①---|
①③口② |--②-|
口②①口 |--③-|
④口③⑤ |④-⑤-|
17
③口②④ |①---|
①口①口 |--②-|
口②口② |----|
④①口③ |③--④|
18
口①①口 |----|
口①口口 |①---|
口口①口 |----|
口①①口 |----|
19
⑦②⑦⑤ |①-②-|
⑦⑦⑦⑥ |③-④-|
①④⑥⑥ |⑤-⑥-|
口⑥⑥③ |⑦---|
20
口①口④ |①-②-|
⑦口⑥口 |③-④-|
③⑤口⑧ |⑤-⑥-|
口口口② |⑦-⑧-|
21
④口口口 |--①-|
口②口③ |--②-|
口口⑤口 |③-④-|
⑥①①口 |⑤-⑥-|
22
口①口④ |①-②-|
⑦口⑥口 |③-④-|
③⑤口⑧ |⑤-⑥-|
口口口② |⑦-⑧-|
23
④口口口 |--①-|
口②口③ |--②-|
⑧⑦⑥⑤ |③-④-|
口①①口 |⑤⑥⑦⑧|
24
口⑤口④ |①-②-|
⑦③⑥口 |③-④-|
口口口⑧ |⑤-⑥-|
①口口② |⑦-⑧-|
25
④口口口 |--①-|
口②口③ |--②-|
口口⑤口 |③-④-|
⑥①①口 |⑤-⑥-|
26
口①口④ |①-②-|
⑦口⑥口 |③-④-|
③⑤口⑧ |⑤-⑥-|
口口口② |⑦-⑧-|
27
④口口口 |--①-|
口②口③ |--②-|
⑧⑦⑥⑤ |③-④-|
口①①口 |⑤⑥⑦⑧|
28
⑤⑤③② |①-②-|
①③①④ |③-④-|
⑥口口⑥ |--⑤-|
⑤②④④ |--⑥-|
29
口口口③ |①-②-|
③口②口 |③---|
口②①口
口①口口

口口口口
口⑤口⑤
⑥口⑥口 |--④-|
④口④口 |⑤-⑥-|
30
③①①④ |①---|
⑤④③口 |②---|
口②⑤② |③-④-|
⑥⑥口口 |⑤-⑥-|
31
④①①口 |①-②-|
口口④② |③-④-|
③②口口 |----|
口口口③ |----|
32
⑧④①⑧ |①-②-|
④②⑤① |③-④-|
③⑤②⑥ |⑤-⑥-|
⑦③⑥⑦ |⑦-⑧-|
33
口④②口 |①-②-|
③①口① |③-④-|
③⑥②口 |--⑤-|
⑦④⑤⑦ |⑥-⑦-|
34
口口口① |①---|
口①口口 |----|
口口口①
口口口口

②口口③
口口②口
②口口口 |②---|
口口口口 |--③-|
35
口口③口 |①-②-|
③口口口 |③---|
口②②③
①③口口

④口口⑤
口口口口
口口口口 |----|
⑤口口④ |④-⑤-|
36
口③③口 |①---|
口①①口 |②-③-|
②①①②
口口口口

口口口口
④⑥⑥④
口口口口 |--④-|
⑤口口⑤ |⑤-⑥-|
37
①口口① |①-②-|
口⑤⑤口 |③-④-|
②③③② |----|
口④④口 |--⑤-|
38
③口口③ |①---|
⑤口口口 |②-③-|
④②②④ |--④-|
①口⑤① |--⑤-|
39
④⑥口④ |①-②-|
口⑤口① |③-④-|
⑥②②口 |----|
③①⑤③ |⑤-⑥-|
40
口口①口 |①-②-|
④口②④ |③-④-|
口③③①
口②口口

⑤⑦⑦⑤
口口口口
⑥口口口 |--⑤-|
口口⑥口 |⑥-⑦-|
41
⑤⑥口口 |①-②-|
⑥①③④ |③-④-|
口③②① |----|
②④口口 |⑤-⑥-|
42
口口①口 |①---|
口③口② |②-③-④-|
①口口口
口④口③

⑧口⑧⑤
口口⑥口
口口口口 |⑤-⑥-|
⑦口⑦口 |⑦-⑧-|
43
口①口口 |----|
①②口② |----|
口②②② |①-②-|
口②口② |----|
44
①④③③ |①-②-|
④⑥①⑤ |③-④-|
②口口口 |⑤---|
口⑤②⑥ |⑥---|
45
②⑤⑤② |①-②-|
④口④口 |③-④-|
口①①口 |----|
③口③口 |⑤---|
46
①口口① |①---|
口③口③ |②-③-|
④口口④ |----|
口②口② |④---|
47
①口①口 |①---|
口口②口 |--②-|
③①口口 |----|
口②口② |--③-|
48
⑤①①口 |①-②-|
③口⑤③ |③-④-|
口②②口 |⑤---|
⑥④④⑥ |⑥---|
49
②口③① |①---|
④①②③ |--②-|
②④口① |----|
口口口口 |③-④-|
50
③①③① |①---|
口②口口 |--②-|
口口①口 |----|
②口②口 |③---|
51
口口口口 |①---|
口口②口 |--②-|
口③口② |----|
③①口① |③---|
52
⑥①①⑤ |①-②-|
①④口① |③-④-|
④⑧⑦口 |⑤-⑥-|
口②③⑦ |⑦-⑧-|
53
口①①口 |①-②-|
①④④① |③-④-|
⑥⑥口③ |⑤---|
②⑤⑤口 |--⑥-|
54
④④①① |①-②-|
⑧口口⑧ |③-④-|
口⑦③③ |⑤-⑥-|
②⑥⑥⑤ |⑦-⑧-|
55
⑤口①③ |①-②-|
口②②口 |③-④-|
⑥口⑧⑥ |⑤-⑥-|
④⑦⑦④ |⑦-⑧-|
56
⑧①①口 |①-②-|
①②③① |③-④-|
⑤⑦⑦⑤ |⑤-⑥-|
④⑥⑥④ |⑦-⑧-|
57
口①①② |①-②-|
①④④① |③-④-|
口口⑦⑦ |⑤-⑥-|
③⑤⑤⑥ |--⑦-|
58
①①④④ |①-②-|
口口口② |③-④-|
③③口口
口口口口

口⑧口口
⑧⑥⑥口
口口口⑦ |⑤-⑥-|
⑤口口口 |⑦-⑧-|
59
⑦口④⑥ |①-②-|
口⑦⑤② |③-④-|
③⑧①口 |⑤-⑥-|
⑧②口② |⑦-⑧-|
60
口⑤口⑤ |①-②-|
④⑥口口 |③-④-|
②口②④ |⑤---|
口③①① |⑥---|
61
①③①口 |①---|
口口②口 |--②-|
④①④口 |----|
口②口② |③-④-|
62
口口⑤⑤ |①-②-|
④④⑥② |③-④-|
口口口② |⑤---|
①③①口 |⑥---|
63
①②③口 |①---|
口口口② |--②-|
①④④口 |----|
口口①② |③-④-|
64
③②④③ |①---|
口口口口 |②---|
③口口③ |③---|
口①①口 |④---|
65
口②④口 |①---|
口①①口 |②---|
③⑤⑤③ |③---|
③①①③ |④-⑤-|
66
③口口③ |①---|
②①①④ |②---|
口口口口 |③---|
口口口口 |④---|
67
⑤⑤⑤⑤ |①-②-|
②⑦③⑥ |③-④-|
口④⑧口 |⑤-⑥-|
口①①口 |⑦-⑧-|
68
口口③口 |①---|
①口口③ |②---|
口②口口 |③---|
②④④① |④---|
69
①⑤口② |①---|
④②①⑤ |--②-|
①口④② |--③-|
③口口口 |④-⑤-|
70
②口②口 |①---|
④口①③ |--②-|
③②口④ |----|
口①口① |③-④-|
71
②①①③ |----|
口①口口 |①---|
口口①口 |②---|
口①①口 |③---|
72
口③口口 |①---|
③口口① |②---|
口口②口 |③---|
①④④② |④---|
73
②口⑤① |①---|
⑤①②④ |--②-|
②④口① |--③-|
口口口③ |④-⑤-|
74
口②口② |①---|
③①口④ |--②-|
④口②③ |----|
①口①口 |③--④|
75
④②②口 |--①-|
⑥②⑥⑦ |②-③-|
口⑤②⑤ |④-⑤-|
①②②③ |⑥-⑦-|
76
④口口① |①-②-|
口⑥口⑦ |③-④-|
⑧口⑤口 |⑤-⑥-|
②口口③ |⑦-⑧-|
77
口口口④ |--①-|
③口②口 |--②-|
口⑤口口 |③-④-|
口①①⑥ |⑤-⑥-|
78
④口①口 |①-②-|
口⑥口⑦ |③-④-|
⑧口⑤③ |⑤-⑥-|
②口口口 |⑦-⑧-|
79
口口口④ |--①-|
③口②口 |--②-|
⑤⑥⑦⑧ |③-④-|
口①①口 |⑤⑥⑦⑧|
80
④口⑤口 |①-②-|
口⑥③⑦ |③-④-|
⑧口口口 |⑤-⑥-|
②口口① |⑦-⑧-|
81
口口口④ |--①-|
③口②口 |--②-|
口⑤口口 |③-④-|
口①①⑥ |⑤-⑥-|
82
④口①口 |①-②-|
口⑥口⑦ |③-④-|
⑧口⑤③ |⑤-⑥-|
②口口口 |⑦-⑧-|
83
口①①口 |--①②|
④口⑤口 |③④⑤⑥|
口②口③
⑥口口口

⑧⑭口⑨
口⑫口⑬
⑩口⑪口 |⑦⑧⑨⑩|
口口口⑦ |⑪⑫⑬⑭|
84
口口口口 |①---|
口口口口 |----|
口口口口 |----|
口①①口 |----|
85
口口口口 |----|
口口口口 |----|
口口口口 |----|
口口口口 |----|
86
①②③④ |①②③④|
⑯⑮⑭⑤ |⑤⑥⑦⑧|
⑪⑫⑬⑥ |⑨⑩⑪⑫|
⑩⑨⑧⑦ |⑬⑭⑮⑯|
87
①②③④ |①②③④|
⑯⑮⑭⑤ |⑤⑥⑦⑧|
⑪⑫⑬⑥ |⑨⑩⑪⑫|
⑩⑨⑧⑦ |⑬⑭⑮⑯|


不確定度: 0

最終更新:2013年08月17日 00:00