Never Look Back in Sorrow
AIKO OI

BASIC

Level: 5
BPM: 270
Notes: 375

1
口口口口 |----|
口口口口 |----|
口口口口 |----|
口口口口
2
口口口口 |----|
口口口口 |----|
口口口口 |----|
口口口口
3
口口口口 |----|
口口口口 |----|
口口口口 |----|
口口口口
4
①口口口 |①---|
口口口口 |----|
口口口口 |----|
口口口口
5
口口口口 |----|
口口口口 |----|
口口口口 |----|
口口口口
6
口口口① |①---|
口口口口 |----|
口口口口 |----|
口口口口
7
口口口口 |①---|
口口口口 |----|
口①①口 |----|
口口口口
8
①口口口 |①---|
口口①口 |----|
口口口口 |----|
口口口口
9
口口口口 |----|
口口口口 |----|
口口口口 |----|
口口口口
10
口口口① |①---|
口口口口 |----|
口口口口 |----|
口口口口
11
口口口口 |①---|
口①口口 |----|
口口口口 |----|
口口口口
12
①口口口 |①---|
口口①口 |----|
口口口口 |----|
口口口口
13
口口口口 |①---|
口口口口 |----|
口口口① |----|
口口口口
14
口口口① |①---|
口口口口 |----|
①口口口 |----|
口口口口
15
口口口口 |①---|
口口口口 |----|
口①①口 |----|
口口口口
16
①口口口 |①---|
口口①口 |----|
口口口口 |----|
口口口口
17
口口口口 |①---|
口①口口 |----|
口口口口 |----|
口口口口
18
口口口① |①---|
口口口口 |----|
口口口口 |----|
口口口口
19
口口口口 |①---|
口①口口 |----|
口口口口 |----|
口口口口
20
①口口口 |①---|
口口①口 |----|
口口口口 |----|
口口口口
21
口口口口 |①---|
口口口口 |----|
口口口① |----|
口口口口
22
口口口① |①---|
口口口口 |----|
①口口口 |----|
口口口口
23
口口口口 |①---|
口口口口 |----|
口口口口 |----|
口①口口
24
①口口口 |①---|
口口口口 |----|
口口口口 |----|
口口①口
25
口口口① |①---|
口口口口 |----|
口①口口 |----|
口口口口
26
口口口口 |①---|
口①口口 |----|
口口口口 |----|
口口口口
27
口口①口 |①---|
口口口口 |----|
口口口口 |----|
口口口口
28
口口口口 |----|
口口口口 |----|
口口口口 |----|
口口口口
29
口口口口 |----|
口口口口 |----|
口口口口 |----|
口口口口
30
口口口口 |----|
口口口口 |----|
口口口口 |----|
口口口口
31
①口口口 |①---|
口口口口 |----|
口口口口 |----|
口口口口
32
口口口① |①---|
口口口口 |----|
口口口口 |----|
口口口口
33
口口口口 |①---|
①口口口 |----|
口口口口 |----|
口口口口
34
口口口口 |①---|
口口口① |----|
口口口口 |----|
口口口口
35
口①①口 |①---|
口②②口 |--②-|
口口口口 |----|
口口口口
36
口口口口 |①---|
②口口② |②---|
口①①口 |----|
口口口口
37
口口口口 |----|
口口口口 |----|
口口口口 |----|
口口口口
38
口口口口 |----|
口口口口 |----|
口口口口 |----|
口口口口
39
口口口口 |①---|
口口口口 |--②-|
口①①口 |----|
口②②口
40
口口口口 |①---|
口口口口 |----|
①口口① |----|
口口口口
41
口口口口 |----|
口口口口 |----|
口口口口 |----|
口口口口
42
口口口口 |----|
口口口口 |----|
口口口口 |----|
口口口口
43
口①①口 |①---|
口②②口 |--②-|
口口口口 |----|
口口口口
44
口口口口 |①---|
②口口② |②---|
口①①口 |----|
口口口口
45
口口口口 |----|
口口口口 |----|
口口口口 |----|
口口口口
46
口口口口 |----|
口口口口 |----|
口口口口 |----|
口口口口
47
口口口口 |①---|
口口口口 |--②-|
口①①口 |----|
口②②口
48
口口口口 |①---|
②口口② |--②-|
口口口口 |----|
①口口①
49
②口口② |①---|
口口口口 |--②-|
①口口① |----|
口口口口
50
口①②口 |①---|
口①②口 |--②-|
口口口口 |----|
口口口口
51
口口口口 |①---|
口口口口 |--②-|
口①①口 |----|
口②②口
52
口口口口 |①---|
②口口② |--②-|
①口口① |----|
口口口口
53
①口口① |①---|
口②口口 |②---|
口口③口 |③---|
口口口口
54
口口口口 |①---|
口口口口 |②---|
口口口口 |③---|
口③②①
55
口口口口 |①---|
口口口口 |----|
口口口口 |----|
①口口口
56
口口口口 |①---|
①①口口 |----|
口口口口 |----|
口口口口
57
口口口口 |①---|
口口口口 |----|
口口口口 |----|
口口口①
58
口口口口 |①---|
口口①① |----|
口口口口 |----|
口口口口
59
口①①口 |①---|
口口口口 |----|
口口口口 |----|
口口口口
60
口口口口 |----|
口口口口 |----|
口口口口 |----|
口口口口
61
口口口口 |----|
口口口口 |----|
口口口口 |----|
口口口口
62
口口口口 |----|
口口口口 |----|
口口口口 |----|
口口口口
63
口口口口 |①---|
口口口口 |--②-|
口①①口 |----|
口②②口
64
口口口口 |①---|
②口口② |--②-|
口口口口 |----|
①口口①
65
②口口② |①---|
口口口口 |--②-|
①口口① |----|
口口口口
66
口①②口 |①---|
口①②口 |--②-|
口口口口 |----|
口口口口
67
口口口口 |①---|
口口口口 |--②-|
口①①口 |----|
口②②口
68
口口口口 |①---|
②口口② |--②-|
①口口① |----|
口口口口
69
①口口① |①---|
口②口口 |②---|
口口③口 |③---|
口口口口
70
口口口口 |①---|
口口口口 |②---|
口口口口 |③---|
口③②①
71
口口口口 |①---|
口口口口 |----|
口口口口 |----|
①口口口
72
口口口口 |①---|
①①口口 |----|
口口口口 |----|
口口口口
73
口口口口 |①---|
口口口口 |----|
口口口口 |----|
口口口①
74
口口口口 |①---|
口口①① |----|
口口口口 |----|
口口口口
75
口①①口 |①---|
口口口口 |----|
口口口口 |----|
口口口口
76
口口口口 |----|
①口口② |①---|
口口口口 |②---|
口口口口
77
口口口口 |①---|
口口口口 |②---|
口②②口 |----|
口①①口
78
口口口口 |①---|
口口口口 |②---|
①口口① |----|
②口口②
79
口口口口 |----|
口口口口 |----|
口口口口 |----|
口口口口
80
口口口口 |①---|
口①①口 |----|
口口口口 |----|
口口口口
81
口①①口 |①---|
口口口口 |----|
口口口口 |----|
口口口口
82
①口口② |①---|
③口口④ |②---|
口口口口 |③---|
口口口口 |④---|
83
口口口口 |①---|
口口口口 |②---|
①口口② |----|
口口口口
84
口③②口 |①---|
口口口口 |②---|
口口口口 |③---|
口①口口
85
口口口口 |①---|
口②①口 |②---|
口口③口 |③---|
口口口口
86
口口口口 |①---|
口口口口 |②---|
口①口口 |----|
口口②口
87
口口口口 |①---|
口口口口 |②---|
③口口④ |③---|
①口口② |④---|
88
口口口口 |①---|
①口口② |②---|
口口口口 |----|
口口口口
89
口③②口 |①---|
口口口口 |②---|
口口口口 |③---|
口①口口
90
口口口口 |①---|
口②①口 |②---|
口口③口 |③---|
口口口口
91
口口口口 |①---|
口口口口 |②---|
口①口口 |----|
口口②口
92
口口口口 |①---|
①②③④ |②---|
口口口口 |③---|
口口口口 |④---|
93
口①②口 |①---|
口口口口 |②---|
口口口口 |----|
口口口口 |----|
94
口口口口 |①---|
④③②① |②---|
口口口口 |③---|
口口口口 |④---|
95
口口口口 |①---|
口口口口 |②---|
口③②① |③---|
口口口口 |----|
96
口口口口 |----|
口口口口 |----|
口口口口 |①---|
①②口口 |②---|
97
口口口口 |①---|
口④③② |②---|
口口口口 |③---|
口口①口 |④---|
98
口口口口 |①---|
口口口口 |②---|
④③②① |③---|
口口口口 |④---|
99
口口口口 |①---|
口口口口 |②---|
口口口口 |③---|
④③②① |④---|
100
口口口口 |①---|
口②②口 |----|
口口口① |②---|
口口口口 |----|
101
②口口② |①---|
口口口口 |----|
口①①口 |②---|
口口口口 |----|
102
口口口口 |①---|
①口口① |----|
②口口② |②---|
口口口口 |----|
103
口②②口 |①---|
口口口口 |----|
口口口口 |②---|
①口口① |----|
104
口口口口 |①---|
口①①口 |----|
口②②口 |②---|
口口口口 |----|
105
口口口口 |①---|
②口口② |----|
口口口口 |②---|
口①①口 |----|
106
口口口口 |①---|
口口口口 |----|
①口口① |②---|
②口口② |----|
107
口口口口 |①---|
口口口口 |----|
口①①口 |----|
口口口口
108
口口口口 |①---|
口①①口 |----|
口口口口 |----|
口口口口
109
①口口① |①---|
②口口② |②---|
③口口③ |③---|
口口口口
110
口口口口 |①---|
口口口口 |----|
口口口口 |----|
①口口①
111
口口口口 |①---|
口口①口 |--②-|
口②口口 |----|
口口口口
112
口口口口 |①---|
口口口口 |--②-|
②口口口 |----|
口口①口
113
口口口口 |①---|
口②口口 |--②-|
口口①口 |----|
口口口口
114
口口口① |①---|
②口口口 |--②-|
口口口口 |----|
口口口口
115
口口口口 |①---|
口口①口 |--②-|
口口口口 |----|
②口口口
116
口口口口 |①---|
口②口口 |--②-|
口口①口 |----|
口口口口

BPM: 340
117
口口①口 |①---|
口口口口 |----|
口口口口 |----|
口口口口
118
口①口口 |①---|
口口口口 |----|
口口口口 |----|
口口口口
119
口口口口 |①---|
口口①口 |----|
口口口口 |----|
口口口口
120
口口口口 |①---|
口①口口 |----|
口口口口 |----|
口口口口
121
口口口口 |①---|
口口口口 |----|
口口①口 |----|
口口口口
122
口口口口 |①---|
口口口口 |----|
口①口口 |----|
口口口口
123
口口口口 |①---|
口口口口 |----|
口口口口 |----|
口口①口
124
口口口口 |①---|
口口口口 |----|
口口口口 |----|
口①口口
125
口口口口 |①---|
口口口口 |----|
口口口口 |----|
口口口①
126
口口口口 |①---|
口口口口 |----|
口口口口 |----|
①口口口
127
口口口口 |①---|
口口口口 |----|
口口口① |----|
口口口口
128
口口口口 |①---|
口口口口 |----|
①口口口 |----|
口口口口
129
口口口口 |①---|
口口口① |----|
口口口口 |----|
口口口口
130
口口口口 |①---|
①口口口 |----|
口口口口 |----|
口口口口
131
口口口① |①---|
口口口口 |----|
口口口口 |----|
口口口口
132
口口口口 |①---|
口口口口 |----|
口①①口 |----|
口口口口
133
口口口口 |①---|
①口口① |--②-|
②口口② |----|
口口口口
134
口口口口 |①---|
口口口口 |----|
口口口口 |----|
①口口①
135
口口口口 |----|
口口口口 |----|
口口口口 |----|
口口口口
136
口口口口 |----|
口口口口 |①---|
①口口① |----|
口口口口
137
口口口口 |----|
口①①口 |--①-|
口口口口 |----|
口口口口
138
口口口口 |①---|
口口口口 |----|
口①①口 |----|
口口口口
139
口口口口 |----|
口口口口 |----|
口口口口 |----|
口口口口
140
口口口口 |①---|
口①①口 |----|
口口口口 |----|
口口口口
141
①口口① |①---|
②口口② |--②-|
口口口口 |----|
口口口口
142
口口口口 |①---|
口口口口 |----|
①口口① |----|
口口口口
143
口口口口 |----|
口口口口 |----|
口口口口 |----|
口口口口
144
口口口口 |----|
①口口① |①---|
口口口口 |----|
口口口口
145
口口口口 |----|
口口口口 |--①-|
口①①口 |----|
口口口口
146
口口口口 |①---|
口口口口 |----|
口口口口 |----|
口①①口
147
口口口口 |----|
口口口口 |----|
口口口口 |----|
口口口口
148
口口口口 |①---|
口口口口 |----|
口①①口 |----|
口口口口
149
口口口口 |①---|
①口口① |--②-|
②口口② |----|
口口口口
150
口口口口 |①---|
口口口口 |----|
口口口口 |----|
①口口①
151
①口口口 |①---|
口口口口 |----|
口口口口 |----|
口口口口
152
口口口口 |----|
口口口口 |----|
口口口口 |----|
口口口口
153
口口口口 |①---|
①口口① |--②-|
②口口② |----|
口口口口
154
口口口口 |①---|
口口口口 |----|
口口口口 |----|
①口口①
155
①①口口 |①---|
口口口口 |----|
口口口口 |----|
口口口口
156
口口口口 |----|
口口口口 |----|
口口口口 |----|
口口口口

BPM: 280
157
口口口口 |①---|
口口口口 |②---|
口③口口 |③---|
口①②口
158
口口口口 |①---|
口②③口 |②---|
口口①口 |③---|
口口口口
159
口①②口 |①---|
口口口口 |②---|
口口口口 |③---|
③口口口
160
口口口口 |①---|
口口口口 |②---|
②口口③ |③---|
口口口①
161
口①①口 |①---|
口②②口 |--②-|
口口口口 |----|
口口口口
162
口口口口 |①---|
②口口② |②---|
口①①口 |----|
口口口口
163
口口口口 |----|
口口口口 |----|
口口口口 |----|
口口口口
164
口口口口 |----|
口口口口 |----|
口口口口 |----|
口口口口
165
口口口口 |①---|
口口口口 |--②-|
口①①口 |----|
口②②口
166
口口口口 |①---|
口口口口 |----|
①口口① |----|
口口口口
167
口口口口 |----|
口口口口 |----|
口口口口 |----|
口口口口
168
口口口口 |----|
口口口口 |----|
口口口口 |----|
口口口口
169
口口口口 |①---|
口口口口 |--②-|
口①①口 |----|
口②②口
170
口口口口 |①---|
②口口② |--②-|
口口口口 |----|
①口口①
171
②口口② |①---|
口口口口 |--②-|
①口口① |----|
口口口口
172
口①②口 |①---|
口①②口 |--②-|
口口口口 |----|
口口口口
173
口口口口 |①---|
口口口口 |--②-|
口②②口 |----|
口①①口
174
①口口① |①---|
②口口② |--②-|
口口口口 |----|
口口口口
175
口口口口 |①---|
口①①口 |----|
口口口口 |----|
口口口口
176
口口口口 |----|
口口口口 |----|
口口口口 |----|
口口口口
177
①口口① |①---|
口口口口 |----|
口口口口 |----|
口口口口
178
口口口口 |----|
口口口口 |----|
口口口口 |①---|
①口口口
179
口口口口 |①---|
口③②① |②---|
口口口口 |③---|
口口口口
180
口口口口 |①---|
①口口口 |----|
口口口口 |----|
口口口口


不確定度: 0

最終更新:2013年08月16日 22:58