Never Look Back in Sorrow
AIKO OI

ADVANCED

Level: 8
BPM: 270
Notes: 603

1
口口口口 |----|
口口口口 |----|
口口口口 |----|
口口口口
2
口口口口 |----|
口口口口 |----|
口口口口 |----|
口口口口
3
口口口口 |----|
口口口口 |①-②-|
①②③④ |③-④-|
口口口口
4
①①口口 |①---|
口口口口 |----|
口口口口 |----|
口口口口
5
口口口口 |----|
口口口口 |----|
口①口口 |①---|
口口口口
6
口口①① |①---|
口口口口 |----|
口口口口 |----|
口口口口
7
口口口口 |①---|
口口口口 |----|
口口口口 |----|
①口口口
8
①①口口 |①---|
口口①口 |----|
口口口口 |----|
口口口口
9
口口口口 |①---|
口口口口 |----|
口②口口 |②---|
口口口①
10
口口①① |①---|
口口口口 |----|
口口口口 |②-③-|
口口③②
11
口口口口 |①---|
口口口口 |----|
口口②口 |②---|
口①口口
12
①①口口 |①---|
口口口口 |----|
口口口口 |②-③-|
②③口口
13
口口口口 |①---|
口口口口 |----|
口②口口 |②---|
口口①口
14
口口①① |①---|
口口口口 |----|
口口口口 |----|
口口口口
15
口口口口 |①---|
口口口口 |----|
①口口口 |----|
口口口口
16
①①口口 |①---|
口口①口 |----|
口口口口 |----|
口口口口
17
口口口口 |①---|
口口口口 |----|
口口口① |----|
口口口口
18
口口①① |①---|
口①口口 |----|
口口口口 |----|
口口口口
19
口口口口 |①---|
口口口③ |②---|
②口口口 |--③-|
口口口①
20
①①口口 |①---|
口口口口 |----|
口口口口 |----|
口口口口
21
口口口口 |①---|
③口口口 |②---|
口口口② |--③-|
①口口口
22
口口①① |①---|
口口口口 |----|
口口口口 |----|
口口口口
23
口口口口 |①---|
口口口③ |②---|
②口口口 |--③-|
口口口①
24
①①口口 |①---|
口口口口 |----|
口口口口 |----|
口口口口
25
口口①① |①---|
口口口口 |----|
①①口口 |----|
口口口口
26
口口口口 |①---|
口①口口 |----|
口口口口 |----|
口口口口
27
口口口口 |①---|
口口①口 |----|
口口口口 |----|
口口口口
28
口口口口 |----|
口口口口 |----|
口口口口 |----|
口口口口
29
口口口口 |----|
口口口口 |----|
口口口口 |----|
口口口口
30
口口口口 |----|
口口口口 |----|
口口口口 |----|
口口口口
31
②口口① |①---|
口口口口 |--②-|
口口口口 |----|
口口口口
32
口②②口 |①---|
口口口口 |②---|
口①①口 |----|
口口口口
33
②口口① |①---|
口口口口 |--②-|
口口口口 |----|
口口口口
34
口②②口 |①---|
口口口口 |②---|
口①①口 |----|
口口口口
35
口口口① |①---|
②口口① |--②-|
②口口口 |----|
口口口口
36
口口口口 |①---|
口②②口 |②---|
口口口口 |----|
口①①口
37
口①①口 |--①-|
口口口口 |--②-|
②口口② |----|
口口口口
38
口口口口 |--①-|
口①①口 |--②-|
口③②口 |--③-|
口③②口
39
口口口① |①---|
②口口① |--②-|
②口口口 |----|
口口口口
40
口①①口 |①---|
口口口口 |----|
口口口口 |----|
口口口口
41
口口口口 |--①-|
口②②口 |--②-|
口口口口 |----|
口①①口
42
口口口口 |--①-|
口口口口 |--②-|
③③②② |--③-|
①口口①
43
②口口① |①---|
②口口① |--②-|
口口口口 |----|
口口口口
44
口口口口 |①---|
口②②口 |②---|
口口口口 |----|
口①①口
45
口①①口 |--①-|
口口口口 |--②-|
②口口② |----|
口口口口
46
口口口口 |--①-|
口①①口 |--②-|
口③②口 |--③-|
口③②口
47
口②①口 |①---|
②口口① |--②-|
口口口口 |----|
口口口口
48
口口口口 |①---|
口口口口 |--②-|
①口②口 |----|
①口②口
49
口口口口 |①---|
口口②口 |--②-|
口①口口 |----|
口①口②
50
①口口② |①---|
口口口口 |--②-|
①口口② |----|
口口口口
51
口口口口 |①---|
②口口① |--②-|
口②①口 |----|
口口口口
52
口口口口 |①---|
口②②口 |--②-|
口口口口 |----|
口①①口
53
①③②① |①---|
口口口口 |②---|
口口口口 |③---|
口口口口
54
口口口口 |①---|
口口口口 |②---|
①②③口 |③---|
口口口口
55
口③口口 |①---|
口口口口 |--②-|
口口口② |--③-|
①①口口
56
口口①口 |①---|
口口口口 |----|
②口口口 |②---|
口口口口
57
口口③口 |①---|
口口口口 |--②-|
口②口口 |--③-|
口口口①
58
口①口口 |①---|
口口口口 |----|
口口口口 |②---|
口②②口
59
①口口① |①---|
口口口口 |②-③-|
②③④口 |④---|
口口口口
60
口口⑤口 |①-②-|
④③②① |③-④-|
口口口口 |⑤---|
口口口口
61
口口口口 |①-②-|
口口口口 |③-④-|
口⑤口口 |⑤---|
①②③④
62
口口⑤口 |①-②-|
④③②① |③-④-|
口口口口 |⑤---|
口口口口
63
口①口① |①---|
口口口口 |--②-|
②口②口 |----|
口口口口
64
口口口口 |①---|
口②②口 |--②-|
口口口口 |----|
口①①口
65
口②②口 |①---|
口口口口 |--②-|
口口口口 |----|
①口口①
66
②口口① |①---|
口口口口 |--②-|
②口口① |----|
口口口口
67
口口口口 |①---|
②口口① |--②-|
口②①口 |----|
口口口口
68
口口口口 |①---|
口②②口 |--②-|
口口口口 |----|
口①①口
69
①口口① |①---|
口口口② |②---|
口口口③ |③---|
口口口口
70
口口口口 |①---|
①口口口 |②---|
②口口口 |③---|
③口口口
71
口口③口 |①---|
口口口口 |--②-|
口②口口 |--③-|
口口①①
72
口①口口 |①---|
口口口口 |----|
口口口② |②---|
口口口口
73
口口口口 |①---|
口③口口 |--②-|
口口②口 |--③-|
①口口口
74
口口口口 |①---|
口口①口 |----|
口口口口 |②---|
口②②口
75
①口口① |①---|
口口口口 |②-③-|
②③④口 |④---|
口口口口
76
口口⑤口 |①-②-|
④③②① |③-④-|
口口口口 |⑤---|
口口口口
77
②口口② |①---|
口口口口 |②---|
口口口口 |----|
①口口①
78
口口口口 |①---|
口①①口 |②---|
口口口口 |----|
口②②口
79
口口口口 |----|
口口口口 |----|
口口口口 |----|
口口口口
80
口口口口 |①---|
口口口口 |----|
口口口口 |----|
①口①①
81
口口口口 |①---|
口口口口 |----|
①①口① |----|
口口口口
82
口口口口 |①-②-|
口口口口 |③-④-|
⑤⑥⑦⑧ |⑤-⑥-|
①②③④ |⑦-⑧-|
83
口口口口 |①-②-|
①②③口 |③---|
口口口口 |----|
口口口口
84
口口口口 |①-②-|
口口口口 |③-④-|
口口⑥⑤ |⑤-⑥-|
④③②①
85
口口口口 |①-②-|
⑥⑤④③ |③-④-|
②①口口 |⑤-⑥-|
口口口口
86
口③②① |①-②-|
口口口口 |③---|
口口口口 |----|
口口口口
87
口口口口 |①-②-|
口口口口 |③-④-|
⑤⑥⑦⑧ |⑤-⑥-|
①②③④ |⑦-⑧-|
88
口口口口 |①-②-|
①②③口 |③---|
口口口口 |----|
口口口口
89
口口口口 |①-②-|
口口口口 |③-④-|
口口⑥⑤ |⑤-⑥-|
④③②①
90
口口口口 |①-②-|
⑥⑤④③ |③-④-|
②①口口 |⑤-⑥-|
口口口口
91
口③②① |①-②-|
口口口口 |③---|
口口口口 |----|
口口口口
92
口口口口 |①-②-|
口口口口 |③-④-|
⑤⑥⑧⑦ |⑤-⑥-|
①②④③ |⑦-⑧-|
93
口口口口 |①-②-|
①②口③ |③---|
口口口口 |----|
口口口口 |----|
94
①②④③ |①-②-|
⑤⑥⑧⑦ |③-④-|
口口口口 |⑤-⑥-|
口口口口 |⑦-⑧-|
95
口口口口 |①-②-|
口口口口 |③-④-|
①②④③ |⑤-⑥-|
⑤⑥口口 |----|
96
口口口口 |----|
口口口口 |----|
④③②① |①-②-|
口口口口 |③-④-|
97
②③④⑤ |①---|
⑥⑦口口 |②-③-|
口口口口 |④-⑤-|
口口①口 |⑥-⑦-|
98
口口口口 |①-②-|
口口①② |③-④-|
③④⑤⑥ |⑤-⑥-|
⑦⑧口口 |⑦-⑧-|
99
口口口口 |①---|
口口口口 |----|
口口口口 |----|
口口①口 |----|
100
口①①口 |①---|
口③③口 |②---|
②口口② |③---|
口④⑤口 |④-⑤-|
101
口④⑤口 |--①-|
①口口① |--②-|
口②③口 |③---|
口口口口 |④-⑤-|
102
①口口① |--①-|
口③③口 |----|
口口口口 |②---|
②口口② |③---|
103
④口口④ |①---|
口口口口 |②-③-|
①②③① |--④-|
口⑤⑤口 |--⑤-|
104
口①①口 |--①-|
④②③④ |--②-|
口口口口 |③---|
口口口口 |④---|
105
④口口④ |①---|
口口口口 |②---|
②③③② |③---|
①口口① |④---|
106
口②③口 |①---|
口②③口 |②-③-|
口口口口 |----|
口①①口 |----|
107
口口口口 |①---|
口口口口 |----|
口口口口 |----|
①口口①
108
口口口口 |①---|
口口口口 |----|
口①①口 |----|
口口口口
109
①①口② |①-②-|
③③口④ |③-④-|
⑤⑤口⑥ |⑤-⑥-|
口口口口
110
口口口口 |①-②-|
口口口口 |----|
口口口口 |----|
①①口②
111
口口口① |①---|
口口口口 |--②-|
口②口口 |----|
口口口口
112
口②口口 |①---|
口口①口 |--②-|
口口口口 |----|
口口口口
113
口口口口 |①---|
口口口口 |--②-|
口口口② |----|
①口口口
114
①口口口 |①---|
口口②口 |--②-|
口口口口 |----|
口口口口
115
口①口口 |①---|
口口口口 |--②-|
口口口口 |----|
口口口②
116
口口口口 |①---|
口口口② |--②-|
口①口口 |----|
口口口口

BPM: 340
117
口①口口 |①---|
口口②口 |②---|
口口口口 |----|
口口口口
118
口口口口 |①---|
口口口口 |②---|
口口②口 |----|
口①口口
119
①口口口 |①---|
口口口② |②---|
口口口口 |----|
口口口口
120
口口口口 |①---|
口口口口 |②---|
口口口② |----|
①口口口
121
口口口口 |①---|
口①口口 |②---|
口口②口 |----|
口口口口
122
口口口口 |①---|
口口②口 |②---|
口①口口 |----|
口口口口
123
口口口口 |①---|
口口口口 |②---|
①口口口 |----|
口口口②
124
口口口口 |①---|
口口口口 |②---|
口口口② |----|
①口口口
125
口口口② |①---|
①口口口 |②---|
口口口口 |----|
口口口口
126
①口口口 |①---|
口口口② |②---|
口口口口 |----|
口口口口
127
口口口口 |①---|
口口②口 |②---|
口①口口 |----|
口口口口
128
口口②口 |①---|
口①口口 |②---|
口口口口 |----|
口口口口
129
口①口口 |①---|
口口口口 |②---|
口口②口 |----|
口口口口
130
口口口口 |①---|
口口口口 |②---|
口口口② |----|
①口口口
131
口口口口 |①---|
口口口② |②---|
①口口口 |----|
口口口口
132
口口口口 |①---|
口①①口 |----|
口口口口 |----|
口口口口
133
①口口① |①---|
口口口口 |--②-|
②口口② |----|
口口口口
134
口口口口 |①---|
口口口口 |----|
口口口口 |----|
①口口①
135
口口口口 |----|
口口口口 |----|
口口口口 |----|
口口口口
136
口①①口 |----|
口口口口 |①---|
口口口口 |----|
口口口口
137
口口口口 |----|
口口口口 |--①-|
口①①口 |----|
口口口口
138
口口口口 |①---|
口口口口 |----|
口口口口 |----|
口①①口
139
口口口口 |----|
口口口口 |----|
口口口口 |----|
口口口口
140
口口口口 |①---|
口口口口 |----|
口①①口 |----|
口口口口
141
①口口① |①---|
口口口口 |--②-|
②口口② |----|
口口口口
142
口口口口 |①---|
口口口口 |----|
口口口口 |----|
①口口①
143
口口口口 |----|
口口口口 |----|
口口口口 |----|
口口口口
144
口①①口 |----|
口口口口 |①---|
口口口口 |----|
口口口口
145
口口口口 |----|
口口口口 |--①-|
口①①口 |----|
口口口口
146
口口口口 |①---|
口口口口 |----|
口口口口 |----|
口①①口
147
口口口口 |----|
口口口口 |----|
口口口口 |----|
口口口口
148
①口口① |①---|
口口口口 |----|
口口口口 |----|
口口口口
149
口口口口 |①---|
①口①① |--②-|
②②口② |----|
口口口口
150
口口口口 |①---|
口口口口 |----|
口口口口 |----|
①口①①
151
①口口口 |①---|
口口口口 |----|
口口口口 |----|
口口口口
152
口口口口 |----|
口口口口 |----|
口口口口 |----|
口口口口
153
口口口口 |①---|
①①口① |--②-|
②口②② |----|
口口口口
154
口口口口 |①---|
口口口口 |----|
口口口口 |----|
①①口①
155
①①口口 |①---|
口口口口 |----|
口口口口 |----|
口口口口
156
口口口口 |----|
口口口口 |----|
口口口口 |----|
口口口口

BPM: 280
157
口口口口 |①-②-|
口口口口 |③-④-|
口⑥⑤口 |⑤-⑥-|
④③②①
158
口⑥⑤口 |①-②-|
④③②① |③-④-|
口口口口 |⑤-⑥-|
口口口口
159
口口口口 |①-②-|
口口口口 |③-④-|
口⑥⑤口 |⑤-⑥-|
④③②①
160
口⑥⑤口 |①-②-|
④③②① |③-④-|
口口口口 |⑤-⑥-|
口口口口
161
②口口① |①---|
口口口口 |--②-|
②口口① |----|
口口口口
162
口口口口 |①---|
口②②口 |②---|
口口口口 |----|
口①①口
163
口①①口 |--①-|
口口口口 |--②-|
②口口② |----|
口口口口
164
口口口口 |--①-|
口①①口 |--②-|
口③②口 |--③-|
口③②口
165
口口口① |①---|
②口口① |--②-|
②口口口 |----|
口口口口
166
口①①口 |①---|
口口口口 |----|
口口口口 |----|
口口口口
167
口口口口 |--①-|
口②②口 |--②-|
口口口口 |----|
口①①口
168
口口口口 |--①-|
口口口口 |--②-|
③③②② |--③-|
①口口①
169
口②①口 |①---|
②口口① |--②-|
口口口口 |----|
口口口口
170
口口口口 |①---|
口①口口 |--②-|
口口口② |----|
①口②口
171
口口口口 |①---|
口口②口 |--②-|
口①口口 |----|
口①口②
172
①口口② |①---|
口口口口 |--②-|
①口口② |----|
口口口口
173
口②①口 |①---|
②口口① |--②-|
口口口口 |----|
口口口口
174
口口口口 |①---|
口口口口 |--②-|
口②①口 |----|
②口口①
175
①口口① |①---|
口③②口 |②---|
口口口口 |③---|
口口口口
176
口口口口 |①---|
口口口口 |②---|
①口口口 |③---|
口②③口
177
口口①① |①---|
口口口① |----|
口口口口 |----|
口口口口
178
口口口口 |----|
口口口口 |----|
口口口口 |①---|
口①口口
179
口口①口 |①---|
口②口口 |②---|
口口③口 |③---|
口口口口
180
口口口口 |①---|
口口口口 |----|
口口口口 |----|
①口口口


不確定度: 0

最終更新:2013年08月16日 22:57