こどなの階段
南波志帆

ADVANCED

Level: 6
BPM: 138
Notes: 475

1
口口口口 |----|
口口口口 |----|
口口口口 |----|
口口口口 |----|
2
口口口口 |①---|
口口口③ |②-③-|
①口④口 |--④-|
口②⑤口 |--⑤-|
3
口口口口 |----|
口口口口 |--①-|
①②口④ |②-③-|
口口③口 |④---|
4
口口①口 |①---|
口口口口 |②-③-|
口②口⑤ |----|
口③④口 |④-⑤-|
5
②口口② |----|
口①①口 |①-②-|
③口口口 |----|
口口口口 |--③-|
6
口口口口 |①---|
口口口③ |②-③-|
口①④口 |--④-|
口②⑤口 |--⑤-|
7
口口口口 |----|
口口口口 |--①-|
①②口④ |②-③-|
口口③口 |④---|
8
口口①口 |①---|
④口口④ |②-③-|
⑤②口⑤ |----|
口③口口 |④-⑤-|
9
口②口口 |--①-|
②①①口 |--②-|
口口口口
口口口口

口口③口
口口④③
口④口口 |--③-|
口口口口 |--④-|
10
口口口口 |----|
口口口口 |--①-|
口口口口 |----|
口①①口 |----|
11
口口口口 |①---|
①口②② |②---|
③口④④ |③---|
口口口口 |④---|
12
口口口口 |①---|
口口口口 |②---|
③口④④ |③---|
①口②② |④---|
13
口口口口 |①-②-|
①②④③ |③-④-|
⑤⑥⑧⑦ |⑤-⑥-|
口口口口 |⑦-⑧-|
14
口口口口 |①-②-|
①②④③ |③-④-|
⑤⑥⑧⑦ |⑤-⑥-|
口口口口 |⑦-⑧-|
15
口口口口 |①---|
①口②② |②---|
③口④④ |③---|
口口口口 |④---|
16
口口口口 |①---|
口口口口 |②---|
③口④④ |③---|
①口②② |④---|
17
口口口口 |①-②-|
①②④③ |③-④-|
⑤⑥口⑦ |⑤-⑥-|
口⑧⑧口 |⑦-⑧-|
18
⑦⑤③① |--①-|
口⑥④② |②-③-|
口口口口 |④-⑤-|
口口口口 |⑥-⑦-|
19
口口口口 |①-②-|
①口口② |③---|
口③③口
口口口口

口口口口
口⑤⑤口
口口⑥④ |④---|
口口口口 |⑤-⑥-|
20
口口口口 |①---|
口口口口 |②---|
口③③口 |----|
②①①② |③---|
21
口口口口 |①-②-|
①⑤⑤② |③---|
口口⑥④ |④---|
口③③口 |⑤-⑥-|
22
口口口口 |①---|
④口口口 |②---|
口③③口 |----|
②①①② |③-④-|
23
口口口口 |①-②-|
口①②口 |③---|
口口口口
口③③口

口④④口
口⑤⑤口
口口口口 |④---|
口口口口 |⑤---|
24
口口口口 |①---|
口口口② |----|
口①①③ |--②-|
口口④口 |③-④-|
25
口②③口 |①---|
①口口④ |②-③-|
①口口④ |④---|
口⑥⑤口 |⑤-⑥-|
26
口②③口 |--①-|
①口口④ |②-③-|
①口口④ |④---|
口⑥⑤口 |⑤-⑥-|
27
口⑤⑤口 |①-②-|
①⑥⑥② |③-④-|
③③⑦④ |⑤---|
口口口口 |⑥-⑦-|
28
口口口口 |①---|
口口口口 |②---|
口③③口 |----|
②①①② |③---|
29
口⑤⑤口 |①-②-|
①⑥⑥② |③-④-|
口口⑦④ |⑤---|
口③③口 |⑥-⑦-|
30
口口口口 |①---|
口口口口 |②---|
口③③口 |----|
②①①② |③---|
31
口口口口 |①-②-|
口①②③ |③---|
口口口口
口口口口

口④④口
口⑤⑤口
口口口口 |④---|
口口口口 |⑤---|
32
口口口口 |①---|
口口口② |----|
口①①③ |--②-|
口口④口 |③-④-|
33
口②③口 |①---|
①口口④ |②-③-|
①口口④ |④---|
口⑥⑤口 |⑤-⑥-|
34
口②③口 |--①-|
①口口④ |②-③-|
①口口④ |④---|
口⑥⑤口 |⑤-⑥-|
35
口口①① |①---|
口口②口 |②---|
口③③口 |③---|
口④⑤口 |④-⑤-|
36
口口口口 |----|
口口口口 |----|
口口口口 |----|
口口口口 |----|
37
口口①① |①---|
口口②口 |②---|
口口口口
口口口口

口口口口
口口⑤口
口③③口 |③---|
口④口口 |④-⑤-|
38
口口口口 |①-②-|
①②口口 |③-④-|
口口③口
口④口口

口口口口
口口口⑦
口口⑧口 |⑤-⑥-|
口口⑤⑥ |⑦-⑧-|
39
①①口口 |①---|
口②口口 |②---|
口③③口 |③---|
口④⑤口 |④-⑤-|
40
口④④口 |①---|
①①①① |----|
②口③口 |②-③-|
口口口口 |--④-|
41
口口口口 |①---|
口①①口 |----|
②口口② |----|
口③③口 |②-③-|
42
口口口口 |--①-|
③口口③ |②-③-|
口②①口 |--④-|
④口口⑤ |⑤---|
43
口①①口 |①---|
⑤②②⑤ |②-③-|
口③④口 |--④-|
口④③口 |--⑤-|
44
②①①② |----|
④③③④ |--①-|
口口口口 |②-③-|
口口口口 |④---|
45
口口口口 |①---|
口口口口 |②-③-|
①②②①
口③③口

口口口口
口⑤⑤口
④口口④ |----|
口口口口 |④-⑤-|
46
口②②口 |----|
口口口口 |①-②-|
口口口口 |----|
口①①口 |----|
47
①口口② |①---|
口①②口 |②-③-|
口口③口
口口口③

口口口口
口⑤⑤口
口④口口 |--④-|
④口口口 |--⑤-|
48
口口口口 |----|
①口③口 |--①-|
口②口④ |②-③-|
口口口口 |④---|
49
口口口口 |①---|
④③③⑤ |②-③-|
口②②口 |----|
口①①口 |④-⑤-|
50
①口③口 |--①-|
口②口④ |--②-|
①口③口 |--③-|
口②口④ |--④-|
51
①口口① |①---|
⑤②②⑤ |②-③-|
口③④口 |--④-|
口④③口 |--⑤-|
52
②①①② |----|
④③③④ |--①-|
口口口口 |②-③-|
口口口口 |④---|
53
口口口口 |①---|
口口口口 |②-③-|
①②②①
口③③口

口口口口
口⑤⑤口
④口口④ |----|
口口口口 |④-⑤-|
54
口②②口 |----|
口口口口 |①-②-|
口口口口 |----|
口①①口 |----|
55
①口口② |①---|
口①②口 |②-③-|
口口③口
口口口③

口口口口
口⑤⑤口
口④口口 |--④-|
④口口口 |--⑤-|
56
④①④② |----|
④口④③ |--①-|
口④口口 |②-③-|
口口口口 |④---|
57
口口口口 |①---|
口③④口 |②-③-|
①④③② |----|
④③④③ |④---|
58
①口口② |①---|
①口口② |②---|
③③③③ |③---|
④口口④ |④---|
59
口口口口 |①---|
①口②② |②---|
③口④④ |③---|
口口口口 |④---|
60
口口口口 |①---|
口口口口 |②---|
③口④④ |③---|
①口②② |④---|
61
口口口口 |①-②-|
①②④③ |③-④-|
⑤⑥⑧⑦ |⑤-⑥-|
口口口口 |⑦-⑧-|
62
口口口口 |①-②-|
①②④③ |③-④-|
⑤⑥⑧⑦ |⑤-⑥-|
口口口口 |⑦-⑧-|
63
口口口口 |①---|
①口②② |②---|
③口④④ |③---|
口口口口 |④---|
64
口口口口 |①---|
口口口口 |②---|
③口④④ |③---|
①口②② |④---|
65
口口口口 |①-②-|
①②④③ |③-④-|
⑤⑥口⑦ |⑤-⑥-|
口⑧⑧口 |⑦-⑧-|
66
口口①⑤ |①-②-|
②④口⑦ |③-④-|
口⑥③口 |⑤-⑥-|
⑧口口口 |⑦-⑧-|
67
口口①⑤ |①-②-|
②④口⑦ |③-④-|
口⑥③口 |⑤-⑥-|
⑧口口口 |⑦-⑧-|
68
口口①口 |①-②-|
②④口口 |③-④-|
口口③口
口口口口

口⑧⑧⑤
⑦口口⑦
口⑥口口 |⑤-⑥-|
口口口口 |⑦-⑧-|


不确定度: 0

最終更新:2012年11月08日 04:20