Asterism
ZUKI

BASIC

Level: 5
BPM: 175
Notes: 224

1
口口口口 |----|
口口口口 |----|
口口口口 |----|
口口口口 |----|
2
口口口口 |①---|
口口口口 |----|
口口口口 |②---|
口②①口 |----|
3
口口口口 |①---|
口口口口 |----|
口②①口 |②---|
口口口口 |----|
4
口口口口 |①---|
口②①口 |----|
口口口口 |②---|
口口口口 |----|
5
口口口① |①---|
口口口② |②---|
口口口③ |③---|
口口口口 |----|
6
口口口口 |①---|
口②①口 |②---|
口④③口 |③---|
口口口口 |④---|
7
口口口口 |①---|
口口口口 |②---|
口④③口 |③---|
口②①口 |④---|
8
口②口口 |①---|
口口①口 |--②-|
口口口口 |----|
口口口口 |----|
9
口口②口 |①---|
口①口口 |--②-|
口口口口 |----|
口口口口 |----|
10
口口口口 |①---|
口口②口 |----|
口①①口 |②---|
口口口口 |----|
11
口口口口 |①---|
口①口口
口口口口
口口口口
12
口口②口 |①---|
口口口口 |--②-|
口③①口 |----|
口口口口 |③---|
13
口①口口 |--①-|
口②②口 |----|
口口口口 |②---|
口口口口 |----|
14
口口②口 |①---|
口口口口 |--②-|
口③①口 |----|
口口口口 |③---|
15
口①口口 |--①-|
口②②口 |----|
口口口口 |②---|
口口口口 |----|
16
口口口口 |①---|
口口②口 |--②-|
口口口口 |----|
口③①口 |③---|
17
口口口口 |--①-|
口①口口 |----|
口②②口 |②---|
口口口口 |----|
18
口口口口 |①---|
口口②口 |--②-|
口口口口 |----|
口③①口 |③---|
19
口口口口 |--①-|
口①口口 |----|
口②②口 |②---|
口口口口 |----|
20
口口口口 |①---|
口②口口 |--②-|
口口口口 |----|
口①③口 |③---|
21
口口口口 |--①-|
口口①口 |----|
口②②口 |②---|
口口口口 |----|
22
口口口口 |①---|
口②口口 |--②-|
口口口口 |----|
口①③口 |③---|
23
口口口口 |--①-|
口口①口 |----|
口②②口 |②---|
口口口口 |----|
24
②口口口 |①---|
口口口口 |--②-|
①口口③ |----|
口口口口 |③---|
25
口口口① |--①-|
口②②口 |----|
口口口口 |②---|
口口口口 |----|
26
口口口口 |①---|
口口口口 |----|
口②①口 |②---|
口口口口 |----|
27
口①①口 |①---|
口②②口 |----|
口口口口 |②---|
口口口口 |----|
28
口口口口 |①---|
口④③口 |②---|
口①②口 |③---|
口口口口 |④---|
29
口口口口 |①---|
①口口口 |②---|
②口口口 |③---|
③④口口 |④---|
30
口口口口 |①---|
口口口④ |②---|
口口口③ |③---|
口口①② |④---|
31
④③②① |①---|
口口口口 |②---|
口口口口 |③---|
口口口口 |④---|
32
口口口口 |①---|
①口口口 |②---|
②③④口 |③---|
口口口口 |④---|
33
口口口口 |①---|
口②①口 |②---|
口③④口 |③---|
口口口口 |④---|
34
口口口口 |①---|
口②①口 |②---|
口③④口 |③---|
口口口口 |④---|
35
口口②③ |①---|
口口①④ |②---|
口口口口 |③---|
口口口口 |④---|
36
口口口口 |①---|
口口③④ |②---|
口口②① |③---|
口口口口 |④---|
37
口口口口 |①---|
口②②口 |--②-|
口口口① |----|
口口口口 |----|
38
口口口口 |①---|
口口口④ |②---|
口口口③ |③---|
口②①口 |④---|
39
④口口口 |①---|
③口口口 |②---|
口①②口 |③---|
口口口口 |④---|
40
④口口④ |①---|
③②①③ |②---|
口口口口 |③---|
口口口口 |④---|
41
口口口口 |①---|
口口口口 |②---|
②口口① |③---|
口③③口 |----|
42
口口口口 |①---|
口②①口 |----|
口口口口 |②---|
口口口口 |----|
43
口口口口 |①---|
口口口口 |----|
口②①口 |②---|
口口口口 |----|
44
口口口口 |①---|
口口口口 |----|
口口口口 |②---|
口②①口 |----|
45
口口口口 |①---|
②口口② |----|
①口口① |②---|
口口口口 |----|
46
口口口口 |①---|
口口口④ |②---|
口口口③ |③---|
口②①口 |④---|
47
④口口口 |①---|
③口口口 |②---|
口①②口 |③---|
口口口口 |④---|
48
④口口④ |①---|
③②①③ |②---|
口口口口 |③---|
口口口口 |④---|
49
口②①口 |①---|
口③③口 |②---|
口口口口 |③---|
口口口口 |----|
50
口口口口 |①---|
口口②口 |----|
口口口口 |----|
口口①口 |②---|
51
口①②口 |①---|
口口口口 |----|
口口口口 |②---|
口口口口 |----|
52
口口口口 |①---|
口①②口 |----|
口口口口 |②---|
口口口口 |----|
53
口口口口 |①---|
口口口口 |----|
口①②口 |②---|
口口口口 |----|
54
口口口口 |①---|
口口口口 |----|
口口口口 |②---|
口①②口 |----|
55
口口口口 |①---|
口口口口 |----|
口①②口 |②---|
口口口口 |----|
56
口口口口 |----|
口①①口 |①---|
口口口口 |----|
口口口口 |----|
57
口口口口 |----|
口口口口 |----|
口口口口 |----|
口口口口 |----|
58
口口口口 |①---|
口口口口 |----|
口②①口 |②---|
口口口口 |----|
59
口口口口 |①---|
口口①口 |----|
口口口口 |----|
口口口口 |----|
60
口口口口 |----|
口口口口 |①---|
口①①口 |----|
口口口口 |----|
61
口口口口 |----|
口口口口 |----|
口口口口 |----|
口口口口 |----|
62
口口口口 |①---|
口口口口 |②---|
口④③口 |③---|
口②①口 |④---|
63
口④③口 |①---|
口②①口 |②---|
口口口口 |③---|
口口口口 |④---|
64
口口③口 |----|
口口②口 |①---|
口①①口 |--②-|
口口口口 |--③-|
65
④①口④ |--①-|
口②③口 |--②-|
口口口口 |--③-|
口口口口 |--④-|
66
口口①口 |----|
口②口口 |①---|
口口③口 |②---|
口口口口 |③---|
67
口口口口 |①---|
④口口④ |②---|
口③口口 |③---|
口①②口 |④---|
68
口口口口 |--①-|
口①①口 |----|
口口口口 |----|
口②②口 |②---|
69
口③③口 |--①-|
口②②口 |----|
口①①口 |②---|
口口口口 |--③-|
70
口口口口 |----|
②③③① |①---|
口口口口 |②---|
口口口口 |--③-|
71
②口口② |--①-|
口③④口 |----|
①③④① |②---|
口口口口 |③-④-|


不確定度: 0

最終更新:2013年08月16日 22:41