亡国のヒストリア
劇団レコード

BASIC

Level: 4
BPM: 140
Notes: 221

1
口口口口 |----|
口口口口 |----|
口口口口 |----|
口口口口 |----|
2
口口口口 |①---|
口①口口 |----|
口口②口 |②---|
口口口口 |----|
3
口③口口 |①---|
口口口② |②---|
口①口口 |③---|
口口口口 |----|
4
口口口口 |①---|
口口①口 |----|
口②口口 |②---|
口口口口 |----|
5
口口③④ |①---|
②口口口 |②---|
口口①口 |③---|
口口口口 |④---|
6
口口口口 |①---|
口①口口 |----|
口口②口 |②---|
口口口口 |----|
7
口③口口 |①---|
口口②口 |②---|
口①口口 |③---|
口口口口 |----|
8
口口口口 |①---|
口①①口 |----|
口②②口 |②---|
口口口口 |----|
9
口口口口 |①---|
口口口口 |②---|
口口口口 |③---|
③①②③ |----|
10
口口口口 |----|
口口口口 |----|
口口口口 |----|
口口口口 |----|
11
口口口口 |----|
①口口口 |----|
口口口口 |①---|
口口口口 |----|
12
口口口口 |①---|
口口②③ |--②-|
口①①口 |③---|
口口口口 |----|
13
①口口口 |①---|
口口②口 |--②-|
口口③口 |③---|
口口口口 |----|
14
口①①口 |①---|
口口③② |--②-|
口口口口 |③---|
口口口口 |----|
15
①口口口 |①---|
口②③口 |--②-|
口口口口 |③---|
口口口口 |----|
16
口口口口 |①---|
口口口口 |--②-|
①②③① |③---|
口口口口 |----|
17
①口口口 |①---|
口口②口 |--②-|
口④③口 |③---|
口口口口 |--④-|
18
口口②③ |①---|
口口④口 |--②-|
口口口口 |③---|
口①口口 |④---|
19
口口口口 |①-②-|
④⑤口口 |③---|
口①③② |④---|
口口口口 |⑤---|
20
口口口口 |①---|
口口口② |----|
口①①口 |②---|
口口口口 |----|
21
①口口口 |①---|
口②口口 |②---|
口口③口 |③---|
口口口口 |----|
22
口①①② |①---|
口口③口 |----|
口口口口 |②---|
口口口口 |③---|
23
口①口口 |①---|
口口口口 |----|
口②②口 |②---|
口口口口 |----|
24
口口口口 |①---|
口口②口 |----|
①③口① |②---|
口口口口 |③---|
25
③口口口 |①---|
口口口口 |②---|
②口口口 |----|
①口口口 |③---|
26
口口口口 |①---|
口①口② |----|
口口③口 |②---|
口口口口 |③---|
27
口口口口 |①---|
口③③口 |----|
口②②口 |②---|
口①口口 |③---|
28
②①①② |①---|
口口口口 |----|
口口口口 |②---|
口口口口 |----|
29
口口口口 |①---|
口②①口 |②---|
口③④口 |③---|
口口口口 |④---|
30
口口口口 |①---|
口口①口 |----|
口口口口 |②---|
②口口② |----|
31
口口口口 |①---|
口④③口 |②---|
口①②口 |③---|
口口口口 |④---|
32
口口口口 |①---|
口口口口 |----|
口①口口
口口口口

口口口口
口口②口
口③口口 |②---|
口口口口 |③---|
33
口口口口 |①---|
口口口口 |----|
口口口口 |②---|
口②①口 |----|
34
口口口③ |--①-|
口口④口 |②---|
①⑤口口 |③-④-|
⑥②口口 |⑤-⑥-|
35
口口口口 |--①-|
口②④口 |②---|
口③①口 |③---|
口口口口 |④---|
36
①口口① |①---|
③口口③ |②---|
②口口② |③---|
④口口④ |④---|
37
口⑥③口 |①-②-|
口④②口 |③-④-|
口⑤①口 |--⑤-|
口口口口 |⑥---|
38
口口口口 |①---|
口口口口 |----|
①口口①
口口口口

口口口口
口口口口
口口口③ |②---|
口②②口 |③---|
39
口口口④ |①-②-|
口口③口 |③-④-|
口②口口 |----|
①口口口 |----|
40
①口口① |①---|
③口口③ |②---|
②口口② |③---|
④口口④ |④---|
41
口口③口 |①-②-|
口④②口 |③-④-|
口⑤①口 |--⑤-|
口口口口 |----|
42
口口口口 |①---|
口口口口 |----|
①口口①
口口口口

口口口口
口口口口
口口口③ |②---|
口②②口 |③---|
43
口口口口 |①---|
口②口口 |②---|
①口口口 |③---|
口③③口 |----|
44
口口口口 |①-②-|
④③⑥① |③---|
口⑤②口 |④-⑤-|
口口口口 |⑥---|
45
口①①口 |①---|
口口口口 |②---|
口②②口 |③---|
口③③口 |----|
46
口口口口 |①---|
②口口② |----|
①③③① |②---|
口口口口 |③---|
47
口口口口 |----|
口口口口 |----|
口口口口 |----|
口口口口 |----|
48
口口口口 |①---|
口①①口 |②---|
口②②口 |③---|
口③③口 |----|
49
口口口口 |①---|
口①口口 |----|
口口②口 |②---|
口口口口 |----|
50
口③口口 |①---|
口口口② |②---|
口①口口 |③---|
口口口口 |----|
51
口口口口 |①---|
口口①口 |----|
口②口口 |②---|
口口口口 |----|
52
口口③④ |①---|
②口口口 |②---|
口口①口 |③---|
口口口口 |④---|
53
口口口口 |①---|
口①口口 |----|
口口②口 |②---|
口口口口 |----|
54
口③口口 |①---|
口口②口 |②---|
口①口口 |③---|
口口口口 |----|
55
口口口口 |①---|
口①①口 |----|
口②②口 |②---|
口口口口 |----|
56
口口口口 |①---|
口口口口 |②---|
口口口口 |③---|
③①②③ |----|
57
③口口③ |①---|
①口口① |----|
口②②口 |②---|
口口口口 |③---|
58
⑤④①⑤ |①-②-|
⑥②③⑥ |③-④-|
口口口口 |⑤---|
口口口口 |⑥---|


不確定度: 0

最終更新:2013年08月16日 22:31