亡国のヒストリア
劇団レコード

ADVANCED

Level: 7
BPM: 140
Notes: 413

1
口口口口 |----|
口口口口 |----|
①口口口 |----|
口口口口 |①---|
2
口口口口 |①---|
④①③② |②---|
口③①口 |③---|
口口口口 |④---|
3
口口口口 |①-②-|
口口口口 |③-④-|
口②口①
③口④口

口口口口
口⑦口口
口⑥口口 |⑤---|
口⑤口⑤ |⑥-⑦-|
4
口①口口 |①---|
口口口口 |②---|
口口口口
口口②口

口④口④
口口③口
口口口口 |③---|
口口口口 |④---|
5
③④③口 |①-②-|
口②口⑤ |③-④-|
①口⑥口 |⑤-⑥-|
口⑦口⑦ |⑦---|
6
口口口口 |①---|
口③①口 |②---|
④①③② |③---|
口口口口 |④---|
7
口口口口 |①-②-|
③④②① |③-④-|
口口口口
口口口口

⑤口口⑤
口口口⑥
口口口⑦ |⑤---|
口口口口 |⑥-⑦-|
8
③口口④ |①-②-|
②④③⑤ |③---|
①⑤②⑥ |④-⑤-|
口⑥①口 |⑥---|
9
口口①口 |①-②-|
②口口口 |③-④-|
口③④口 |⑤---|
⑤⑥⑥⑤ |⑥---|
10
口口口口 |①-②-|
口⑦③⑤ |③-④-|
①②⑥④ |--⑤-|
口口口口 |⑥-⑦-|
11
口口口口 |--①-|
①口③口 |②-③-|
口②口口 |④---|
⑤④④⑤ |⑤---|
12
②口②口 |①---|
口口口口 |--②-|
口①①口
口口口口

口口口口
③口③口
口④口口 |③---|
口口口口 |④---|
13
口①口① |①---|
口口口口 |--②-|
口②④② |③---|
口③口③ |④---|
14
口①口口 |①---|
口口④口 |--②-|
②口②口 |③---|
③口③口 |④---|
15
口口口口 |①---|
口口口口 |--②-|
②①②①
口口口口

口⑥口⑥
口口⑤⑤
口口口④ |③-④-|
③口③口 |⑤-⑥-|
16
口口①口 |①---|
口④口口 |--②-|
②口②口 |③---|
③口③口 |④---|
17
口口①口 |①---|
口口④口 |--②-|
口②口② |③---|
口③口③ |④---|
18
口①口口 |①---|
口口口口 |--②-|
②④②④ |③---|
③口③口 |④---|
19
口口口口 |①-②-|
③②②③ |③---|
①口①口 |④---|
⑤④④⑤ |⑤---|
20
④口口口 |①---|
口②⑥口 |②-③-|
③①①⑤ |④---|
口口口口 |⑤-⑥-|
21
口②②① |①-②-|
③口口⑦ |③-④-|
口④⑥口 |⑤---|
口⑤口口 |⑥-⑦-|
22
④①③口 |①-②-|
口②①口 |③-④-|
口口口口
口口口口

口口口⑤
口口⑥口
⑦口口⑦ |⑤-⑥-|
口⑧⑧口 |⑦-⑧-|
23
④口④口 |①---|
③③口口 |----|
②口口口 |--②-|
①口口① |③-④-|
24
口①口口 |--①-|
口④口② |②-③-|
⑤③⑤口 |④-⑤-|
口⑥⑦口 |⑥-⑦-|
25
⑤⑥④⑤ |①-②-|
⑦口②③ |③-④-|
⑧口口① |⑤-⑥-|
口口口口 |⑦-⑧-|
26
⑤口口⑤ |①-②-|
口③口③ |③-④-|
⑥②④⑥ |⑤---|
①口①口 |⑥---|
27
口口口口 |①-②-|
③②②③ |③---|
口口⑤口 |④---|
①④口① |⑤---|
28
②口口口 |①---|
口口⑤① |--②-|
口④口口 |--③-|
③口口口 |④-⑤-|
29
①口②② |①---|
口③口口 |②---|
口口④口 |③---|
口口口口 |④---|
30
口口口② |①---|
口口③口 |----|
口④口口 |--②-|
口①口口 |③-④-|
31
②②口口 |①---|
口口③口 |②---|
口④口口 |③---|
口口口① |④---|
32
口口①口 |①-②-③-|
口②口口 |④---|
口口③口 |----|
⑤④口⑤ |⑤---|
33
口④④口 |①---|
②口口③ |--②-|
口⑤⑤口 |③--④|
口①①口 |--⑤-|
34
口口口口 |--①-|
口①①口 |②---|
口口口口
口②②口

口③③口
口口口口
⑤④④⑤ |③-④-|
口⑥⑥口 |⑤-⑥-|
35
④口口④ |--①-|
③②①③ |②---|
口口口口 |③---|
口口口口 |④---|
36
口①③口 |①---|
口③①口 |②---|
口②④口 |③---|
②口口④ |④---|
37
口口口口 |①-②-|
口口③口 |③-④-|
口口口②
④①口口

⑥口口⑥
口口⑦口
口⑤口口 |--⑤-|
口口口口 |⑥-⑦-|
38
④口口口 |①---|
口①口① |--②-|
③②③口 |③---|
口口口口 |④---|
39
口口口④ |①-②-|
口口③口 |③-④-|
口②口口 |----|
①口口口 |----|
40
口③①口 |①---|
口①③口 |②---|
口④②口 |③---|
④口口② |④---|
41
口口口④ |①-②-|
口③口② |③-④-|
口口口口
口口①口

口⑤口口
口⑥口口
口口口口 |--⑤-|
口口口口 |--⑥-|
42
口口口口 |①---|
①口①口 |--②-|
口③②③ |③---|
口口④口 |④---|
43
口口口① |①-②-|
口口②口 |③-④-|
口③口口 |⑤---|
④口口⑤ |----|
44
口③④口 |①-②-|
口⑤②口 |③---|
口①⑥口 |④-⑤-|
口口口口 |⑥---|
45
⑧口口① |①-②-|
⑦口②口 |③-④-|
⑥③口口 |⑤-⑥-|
④口口⑤ |⑦-⑧-|
46
口⑤③口 |①-②-|
⑥②④⑥ |③-④-|
口口①口 |⑤---|
口口口口 |⑥---|
47
口口口口 |----|
①口口口 |----|
口口口口 |----|
口口口口 |--①-|
48
口口④口 |①-②-|
口口口③ |③-④-|
⑤②①⑤ |⑤---|
⑥口口⑥ |⑥---|
49
口口口口 |①---|
④①③② |②---|
口③①口 |③---|
口口口口 |④---|
50
口口口口 |①-②-|
口口口口 |③-④-|
口②口①
③口④口

口口口口
口⑦口口
口⑥⑤口 |⑤---|
口⑤口口 |⑥-⑦-|
51
口①口口 |①---|
口口口口 |②---|
口口口口
口口②口

口④口④
口口③口
口口口口 |③---|
口口口口 |④---|
52
③④③口 |①-②-|
口②口⑤ |③-④-|
①口⑥口 |⑤-⑥-|
口⑦口⑦ |⑦---|
53
口口口口 |①---|
口③①口 |②---|
④①③② |③---|
口口口口 |④---|
54
口口口口 |①-②-|
③④②① |③-④-|
口口口口
口口口口

⑤口口⑤
口口口⑥
口口口⑦ |⑤---|
口口口口 |⑥-⑦-|
55
口④口③ |①-②-|
②⑤⑥④ |③---|
①③②⑤ |④-⑤-|
⑥口①口 |⑥---|
56
口口①口 |①-②-|
口口口② |③-④-|
口③④口 |⑤---|
⑤⑥⑥⑤ |⑥---|
57
④口②⑥ |①-②-|
口①⑤③ |③-④-|
口口口口 |⑤---|
口口口口 |⑥---|
58
口口口口 |①-②-|
②口②④ |③-④-|
口①口口
口③口口

⑤口口⑤
口口⑥口
口口口口 |⑤---|
口口口口 |⑥---|


不確定度: 0

最終更新:2013年08月16日 22:30