le mirage
Vivian

ADVANCED

Level: 7
BPM: 160
Notes: 454

1
口口口口 |----|
口口口口 |----|
口口口口 |----|
口口口口 |----|
2
口③①口 |①-②-|
口⑥口口 |③-④-|
口④②口 |⑤-⑥-|
⑦⑦⑤口 |--⑦-|
3
口口③③ |--①-|
②②口口 |--②-|
口口①① |--③-|
口④④口 |--④-|
4
口口口口 |①-②-|
③⑤口④ |③-④-|
①口⑥② |⑤-⑥-|
⑦口口⑦ |--⑦-|
5
口口口口 |----|
口口口口 |----|
口口口口 |----|
口口口口 |----|
6
口①口② |①-②-|
③口④口 |③-④-|
⑦⑤口口 |⑤-⑥-|
⑦口口⑥ |--⑦-|
7
口④④③ |--①-|
口②①③ |--②-|
口②①口 |--③-|
口口口口 |--④-|
8
口口口口 |--①-|
口口口口 |②-③-|
口①①口
②③③②

⑤口⑤口
口④口④
口⑥⑥口 |④-⑤-|
口口口口 |--⑥-|
9
口口口口 |----|
口口口口 |----|
口口口口 |----|
①口口① |①---|
10
口①①口 |①---|
③口口② |----|
口口口口 |--②-|
口口口④ |③-④-|
11
口口口口 |----|
①口口② |----|
口口口口 |--①-|
③口口口 |②-③-|
12
⑥口口③ |--①-|
口口口口 |②-③-|
口②⑤口 |--④-|
口④①口 |⑤-⑥-|
13
口口口口 |--①-|
②口口① |--②-|
②口口① |--③-|
④③③④ |--④-|
14
⑦①③⑦ |①-②-|
⑥口口⑤ |③-④-|
④口口② |⑤-⑥-|
口口口口 |--⑦-|
15
口口口口 |--①-|
口④口口 |----|
口口③② |--②-|
口①①口 |③-④-|
16
④口口① |①-②-|
口口口口 |③-④-|
口口口口
②口口③

口口⑦⑦
⑥⑥口口
口口⑤⑤ |--⑤-|
口口口口 |⑥-⑦-|
17
口口口口 |----|
口口口口 |----|
口口口口 |----|
口口口口 |----|
18
口口口口 |①---|
口①①口 |----|
口①①口
口口口口

口口口口
口口口口
口③口口 |----|
口口②口 |--②③|
19
②口⑤⑤ |①---|
口③①口 |--②-|
口口④口 |③-④-|
口口口口 |--⑤-|
20
口口口口 |----|
口口口口 |--①-|
口③口口 |----|
①①②口 |--②③|
21
口口口⑤ |①---|
④口①⑤ |②---|
口口口口 |③-④-|
②口口③ |--⑤-|
22
口口口口 |----|
口口口口 |----|
口口②口 |----|
口①口口 |--①②|
23
⑤⑤口② |①---|
口①③口 |--②-|
口④口口 |③-④-|
口口口口 |--⑤-|
24
口口口口 |----|
②口口口 |--①-|
②口口口 |----|
口口①① |②---|
25
口④④口 |①---|
口②③① |②-③-|
口②③① |--④-|
口⑤⑤口 |--⑤-|
26
口口口口 |----|
口口口口 |----|
口②口口 |----|
口口①口 |--①②|
27
⑤⑤口② |①---|
口口①④ |--②-|
口口口④ |③-④-|
③口口口 |--⑤-|
28
口口口口 |----|
口口口口 |--①-|
口口③口 |----|
口②①① |--②③|
29
③口⑤⑤ |①---|
口①口口 |②---|
②口口口 |③-④-|
②口④④ |--⑤-|
30
口口口口 |----|
口口口口 |----|
口②口口 |----|
口口①口 |--①②|
31
口口⑤⑤ |①---|
④口①口 |--②-|
④口口口 |③-④-|
②口口③ |--⑤-|
32
口口口口 |----|
②口口口 |--①-|
口口口② |----|
①①口口 |②---|
33
④口口⑤ |①---|
口②③① |②-③-|
①③②口 |--④-|
⑤口口④ |--⑤-|
34
口口口口 |----|
口口口口 |----|
口口口口 |----|
口口口口 |----|
35
口④③② |①---|
口①①口 |----|
口①①口 |②--③|
②③④口 |--④-|
36
①口口口 |①---|
口②口口 |----|
口口②口 |②---|
口③口① |--③-|
37
①③①③ |①---|
口⑤⑤口 |②-③-|
口口口口 |--④-|
④口②④ |--⑤-|
38
口口口口 |----|
口口口口 |--①-|
①口口① |----|
①②②① |②---|
39
口①①口 |①---|
②口⑤③ |--②-|
口④口口 |③--④|
口口口口 |--⑤-|
40
口①②⑥ |①---|
口③口口 |②-③-|
口⑤④口 |--④-|
口口口口 |⑤-⑥-|
41
①口口口 |①---|
口口口口 |----|
口口口口 |----|
口口口口 |----|
42
口口口口 |----|
口②口② |----|
①口①口 |①---|
口口口口 |②---|
43
②①①口 |①---|
②③口口 |--②-|
口③口口 |----|
口口口口 |③---|
44
口口口口 |①---|
口口①口 |----|
口口①② |②---|
口口口② |----|
45
③①③① |①---|
口口口口 |②-③-|
口口口口
口②口口

口口口⑤
口口口⑤
④口口口 |--④-|
④口口口 |--⑤-|
46
口口口口 |----|
口口口口 |--①-|
口口口口 |----|
②①①② |②---|
47
①①①① |①---|
口口口② |②---|
口口口③ |③---|
口口口④ |④---|
48
④口口④ |①---|
③口口③ |②---|
②口口口 |③---|
①口口口 |④---|
49
口口口口 |①---|
口口口口 |----|
口①①口 |----|
②口口② |②---|
50
①①①① |①---|
口口口口 |----|
口口口口 |----|
口口口口 |----|
51
口口⑦口 |①-②-|
口⑥⑤⑦ |③-④-|
口④③口 |⑤-⑥-|
口②①口 |--⑦-|
52
④①口④ |--①-|
①口口口 |--②-|
③口口② |--③-|
口③②口 |--④-|
53
口②①口 |①-②-|
口④③口 |③-④-|
口⑥⑤口 |⑤-⑥-|
⑦口口⑦ |--⑦-|
54
②口口① |----|
②口口① |①---|
口口口口 |②---|
口口口口 |----|
55
口口⑦口 |①-②-|
口⑥⑤⑦ |③-④-|
口④③口 |⑤--⑥|
口②①口 |--⑦-|
56
口①④口 |--①-|
①口口口 |--②-|
③口口② |--③-|
口③②口 |--④-|
57
⑦①口⑦ |①-②-|
口③②口 |③-④-|
口⑤④口 |⑤-⑥-|
口口⑥口 |--⑦-|
58
口口口口 |----|
口口口口 |----|
口口口口 |----|
口口口口 |----|
59
口口口⑦ |①-②-|
口⑥⑦⑤ |③-④-|
口④口③ |⑤-⑥-|
口②口① |--⑦-|
60
口①口口 |--①-|
①口口口 |--②-|
口③口② |--③-|
③④②④ |--④-|
61
②口①口 |①-②-|
④口③口 |③-④-|
⑥口⑤口 |⑤-⑥-|
⑦口口⑦ |--⑦-|
62
口口口口 |----|
②口口① |①---|
②口口① |②---|
口口口口 |----|
63
口口⑦口 |①-②-|
⑥口⑤⑦ |③-④-|
④口③口 |⑤-⑥-|
②口①口 |--⑦-|
64
①口口口 |--①-|
口①口口 |--②-|
③口②口 |--③-|
口③口② |----|
65
口①口① |①-②-|
②口②口 |--③-|
口口口③
口口口③

口口口⑥
口⑤口⑥
口⑤④口 |④-⑤-|
口口④口 |--⑥-|
66
口口口口 |----|
口口口口 |----|
口口口口 |----|
口口口口 |----|
67
②口口① |①-②-|
④口口③ |③-④-|
⑥口口⑤ |⑤-⑥-|
⑧口口⑦ |⑦-⑧-|
68
口⑥①口 |①-②-|
④口口口 |③-④-|
口②⑦⑤ |⑤-⑥-|
⑧口③口 |⑦-⑧-|
69
口口口口 |①-②-|
④③②① |③-④-|
⑥口口⑤ |⑤-⑥-|
⑥⑦⑦⑤ |--⑦-|
70
口②口③ |①-②-|
口⑥①口 |③-④-|
④口⑦口 |⑤-⑥-|
⑧口口⑤ |⑦-⑧-|
71
⑥口⑤口 |①-②-|
④口①口 |③-④-|
口②⑦口 |⑤-⑥-|
⑧口口③ |⑦-⑧-|
72
⑥②口口 |①-②-|
口口⑤① |③-④-|
口口⑦③ |⑤-⑥-|
⑧④口口 |⑦-⑧-|
73
口口①口 |①-②-|
口②口② |③-④-|
口③口③
口④口④

口⑦⑦口
⑤口⑤口
⑥口⑥口 |⑤-⑥-|
口口口口 |--⑦-|
74
口口口口 |①-②-|
③⑦⑤① |③-④-|
④⑧⑥② |⑤-⑥-|
口口口口 |⑦-⑧-|


不確定度: 0

最終更新:2013年08月16日 22:20