New Decade
Sota F.

EXTREME

Level: 10
BPM: 200
Notes: 714

1
口口口口 |----|
口口口口 |----|
口口口口 |----|
口口口口 |----|
2
口口口口 |①-②-|
②④⑥⑧ |③-④-|
①③⑤⑦ |⑤-⑥-|
①口口口 |⑦-⑧-|
3
⑧⑥④② |①-②-|
口口口口 |③-④-|
口口口口 |⑤-⑥-|
⑦⑤③① |⑦-⑧-|
4
口口口口 |①-②-|
⑧⑥④② |③-④-|
⑦⑤③① |⑤-⑥-|
口口口口 |⑦-⑧-|
5
②④⑥⑧ |①-②-|
口口口口 |③-④-|
口口口口 |⑤-⑥-|
①③⑤⑦ |⑦-⑧-|
6
口口口口 |①-②-|
②④⑥⑧ |③-④-|
①③⑤⑦ |⑤-⑥-|
口口口口 |⑦-⑧-|
7
⑧⑥④② |①-②-|
口口口口 |③-④-|
口口口口 |⑤-⑥-|
⑦⑤③① |⑦-⑧-|
8
口口口口 |①---|
口②②口 |②-③-|
①口口①
口③③口

口④④⑥
⑤口口④
⑥⑤⑤口 |④-⑤-|
⑥口口口 |--⑥-|
9
①②③口 |--①-|
口口口口 |--②-|
口口口① |--③-|
口③②① |----|
10
口口口口 |①-②-|
②④⑥⑧ |③-④-|
①③⑤⑦ |⑤-⑥-|
①口口口 |⑦-⑧-|
11
⑧⑥④② |①-②-|
口口口口 |③-④-|
口口口口 |⑤-⑥-|
⑦⑤③① |⑦-⑧-|
12
口⑦⑧⑨ |①-②③|
口①口⑤ |④-⑤-|
口④③② |⑥-⑦⑧|
口⑪⑩⑥ |⑨-⑩⑪|
13
⑥⑧⑨⑦ |①-②③|
口②③口 |-④⑤-|
口④⑤口 |⑥-⑦-|
①⑩⑪口 |⑧⑨⑩⑪|
14
口口口口 |①-②-|
②④⑥⑧ |③-④-|
①③⑤⑦ |⑤-⑥-|
口口口口 |⑦-⑧-|
15
⑧⑥④② |①-②-|
口口口口 |③-④-|
口口口口 |⑤-⑥-|
⑦⑤③① |⑦-⑧-|
16
口口③① |①-②-|
①④口② |③-④-|
②③口口
口口口④

⑦⑤口口
⑧口⑤口
口口⑧⑥ |⑤-⑥-|
口⑥⑦口 |⑦-⑧-|
17
⑪⑧⑤② |①-②③|
⑫⑨⑥③ |④-⑤⑥|
①口口口 |⑦-⑧⑨|
④⑦⑩口 |⑩-⑪⑫|
18
口⑦⑥⑤ |①②③-|
口⑨⑩⑪ |④-⑤⑥|
①②③⑧ |⑦-⑧-|
④口口口 |⑨⑩⑪-|
19
⑤⑥⑦口 |①②③-|
⑧口口口 |④-⑤⑥|
③②①口 |⑦-⑧-|
⑪⑩⑨④ |⑨⑩⑪-|
20
④⑥⑤① |①②③-|
口②口⑨ |④-⑤⑥|
⑧⑩⑦③ |⑦-⑧-|
口口口⑪ |⑨⑩⑪-|
21
⑤⑤④⑥ |①-②-|
①①②⑥ |③-④-|
⑦⑦⑧④ |⑤-⑥-|
③③②⑧ |⑦-⑧-|
22
⑦⑥⑤口 |①②③-|
①②③⑧ |④-⑤⑥|
口口口口 |⑦-⑧-|
④⑨⑩⑪ |⑨⑩⑪-|
23
⑪⑩⑨④ |①②③-|
⑤⑥⑦口 |④-⑤⑥|
③②①口 |⑦-⑧-|
⑧口口口 |⑨⑩⑪-|
24
口口⑤③ |①-②-|
③④口① |③-④-|
②⑤④口 |--⑤-|
口①口② |----|
25
①口口口 |①---|
口口②口 |②---|
②口口①
口口口口

口口口④
口口口⑤
口口口⑥ |③---|
口③③⑦ |④⑤⑥⑦|
26
①②①口 |①-②-|
③④③口 |③-④-|
⑤⑥⑤口 |⑤-⑥-|
⑦⑧⑦口 |⑦-⑧-|
27
口①②① |①-②-|
③④④③ |③-④-|
口口⑥⑤ |⑤-⑥-|
口口⑧⑦ |⑦-⑧-|
28
口口口口 |①-②-|
②④⑥⑧ |③-④-|
①③⑤⑦ |⑤-⑥-|
口口口口 |⑦-⑧-|
29
⑧⑥④② |①-②-|
口口口口 |③-④-|
口口口口 |⑤-⑥-|
⑦⑤③① |⑦-⑧-|
30
口口口③ |①-②-|
口②③口 |③-④-|
②口①口
口④口①

口⑥⑥口
⑦口口口
口口口口 |⑤-⑥-|
口口⑤⑧ |⑦-⑧-|
31
口口口口 |①-②-|
⑦⑤③① |③-④-|
⑧⑥④② |⑤-⑥-|
口口口口 |⑦-⑧-|
32
①口口② |①-②-|
口⑤⑥口 |③-④-|
口⑧⑦口 |⑤-⑥-|
④口口③ |⑦-⑧-|
33
口③②① |①②③-|
口⑪⑩⑨ |④-⑤⑥|
⑧口口④ |⑦-⑧-|
⑤⑥⑦口 |⑨⑩⑪-|
34
口①口口 |①---|
①口口口 |--②-|
口口①口 |----|
②口③① |③---|
35
口口口口 |①---|
口口口口 |--②-|
口口口口 |----|
②④③① |③-④-|
36
①①口口 |①---|
口⑤口② |②-③-|
③口口④ |④---|
③口⑤① |⑤---|
37
口⑥②口 |①-②-|
③⑥④口 |③-④-|
口⑤口口 |⑤---|
④⑦⑥① |⑥-⑦-|
38
③口口② |①---|
口口口口 |②-③-|
①口口①
②口口③

口口口口
⑤口口口
⑤④④口 |--④-|
口口口口 |--⑤-|
39
口②③口 |--①-|
口④④① |--②-|
口口口① |③---|
口③②口 |④---|
40
③口口② |①---|
口口口口 |②-③-|
④①①⑤ |--④-|
②口口③ |--⑤-|
41
③②④④ |①-②-|
⑤⑥⑥⑥ |③-④-|
口①②口 |⑤-⑥-|
口②④口 |----|
42
口④③② |①---|
口口口口 |----|
口口口口 |----|
①口口① |②③④-|
43
口口口口 |①---|
②③④口 |----|
口口口口 |----|
①口口① |②③④-|
44
⑤④③② |①---|
⑦⑧⑨⑩ |②③④⑤|
口口口口 |⑥---|
①⑥⑥① |⑦⑧⑨⑩|
45
③②②③ |①---|
④口口口 |②---|
②③③② |③---|
①口口① |④---|
46
④口口口 |①-②-|
口口口① |③-④-|
②④口口
口口③口

口口口口
口口⑥⑧
口口⑤⑦ |⑤-⑥-|
口口口口 |⑦-⑧-|
47
⑧⑥④② |①-②-|
口口口口 |③-④-|
口口口口 |⑤-⑥-|
⑦⑤③① |⑦-⑧-|
48
口口④① |①-②-|
口⑧⑦口 |③-④-|
口口口③ |⑤-⑥-|
⑥⑤②口 |⑦-⑧-|
49
⑧⑥④② |①-②-|
④口口口 |③-④-|
③口⑥口 |⑤-⑥-|
⑦⑤③① |⑦-⑧-|
50
口⑤④口 |①-②-|
口③⑧④ |③-④-|
③①⑥② |⑤-⑥-|
⑦口②口 |⑦-⑧-|
51
⑧⑥④② |①-②-|
②④⑧⑥ |③-④-|
③①⑤⑦ |⑤-⑥-|
⑦⑤③① |⑦-⑧-|
52
口口⑥口 |①-②-|
①⑦口口 |③-④-|
⑧②④口 |⑤-⑥-|
口口③⑤ |⑦-⑧-|
53
②④⑥⑧ |①-②-|
口口②口 |③-④-|
口口口① |⑤-⑥-|
①③⑤⑦ |⑦-⑧-|
54
口②⑤口 |①---|
②①①⑤ |②-③-|
⑤①①③ |--④-|
④⑤③④ |--⑤-|
55
口③⑥① |--①-|
①②①口 |--②-|
口①②口 |③-④-|
⑤口口④ |⑤-⑥-|
56
①④口③ |①-②-|
④⑥⑤⑥ |③-④-|
②⑧⑧③ |⑤-⑥-|
⑦②口口 |⑦-⑧-|
57
⑧⑥④② |①-②-|
④口口⑥ |③-④-|
③口⑧口 |⑤-⑥-|
⑦⑤③① |⑦-⑧-|
58
口口⑤口 |①---|
②①①⑤ |②-③-|
⑤②口③ |--④-|
④⑤③④ |--⑤-|
59
③①口① |--①-|
①口①⑥ |--②-|
口②②④ |③-④-|
⑤口口口 |⑤-⑥-|
60
口①②口 |①-②-|
①②⑤口 |--③-|
⑥④③⑤ |④---|
口⑥④③ |⑤-⑥-|
61
④①②③ |①-②-|
①口⑤② |③-④-|
口⑥⑦口 |--⑤-|
口⑧⑨口 |⑥⑦⑧⑨|
62
⑤口口② |①-②-|
①③⑥口 |③-④-|
⑦口⑧④ |⑤-⑥-|
③⑦口口 |⑦-⑧-|
63
⑦⑤口口 |①-②-|
①③⑥② |③-④-|
口⑦口④ |⑤-⑥-|
③口口⑧ |⑦-⑧-|
64
口⑤口口 |①-②-|
①③⑥④ |③-④-|
⑦口②⑧ |⑤-⑥-|
③⑦口口 |⑦-⑧-|
65
口⑦⑧口 |①-②-|
③③口⑥ |③-④-|
⑦①②⑧ |⑤-⑥-|
⑤口④口 |⑦-⑧-|
66
②口口① |①-②-|
④口⑦⑤ |③-④-|
⑧口③口 |⑤-⑥-|
口⑥③⑦ |⑦-⑧-|
67
②口口③ |①-②-|
⑥口⑦⑤ |③-④-|
口④③① |⑤-⑥-|
⑧口口⑦ |⑦-⑧-|
68
⑧口③⑦ |①-②-|
口④⑦⑤ |③-④-|
②⑥③① |⑤-⑥-|
口口口口 |⑦-⑧-|
69
口⑥⑤口 |①-②-|
⑩⑨⑧⑦ |③-④-|
④口③③ |⑤-⑥-|
②口口① |⑦⑧⑨⑩|
70
②③④⑤ |①---|
口口口口 |----|
口口口口 |----|
口①①口 |②③④⑤|
71
口口口口 |①---|
⑤④③② |----|
口口口口 |----|
口①①口 |②③④⑤|
72
口口口口 |①---|
口口口口 |----|
③④⑤⑥ |②---|
②①①② |③④⑤⑥|
73
口③②口 |①---|
口②③口 |②---|
④⑤⑥⑦ |③---|
口①①口 |④⑤⑥⑦|
74
口口口口 |①---|
①口口① |----|
口口口口 |----|
口①①口 |----|


不確定度: 0

最終更新:2013年10月17日 16:04