Baby Sweet Berry Love
小倉 唯

EXTREME

Level: 9
BPM: 170
Notes: 582

1
口口口口 |----|
口③口口 |----|
口①②口 |--①-|
口口口口 |②-③-|
2
③口口① |①---|
⑤口口口 |②---|
⑤口口口 |③---|
②⑤口④ |④-⑤-|
3
②口口② |--①-|
口口口① |--②-|
③口口① |----|
口口①口 |--③-|
4
⑥口口口 |①-②-|
口④③口 |③-④-|
口②①⑤ |⑤---|
口口口⑦ |⑥-⑦-|
5
口口口口 |----|
口①口口 |----|
口口②口 |--①-|
口③口口 |②-③-|
6
口③①口 |①---|
③④②① |②---|
口②⑤口 |③---|
①口口③ |④-⑤-|
7
口③口口 |--①-|
口口②① |②-③-|
①②口口 |----|
④⑤③口 |--④⑤|
8
口⑤①口 |①-②-|
⑥口口② |③-④-|
口⑦③口 |⑤-⑥-|
⑧口口④ |⑦-⑧-|
9
①③③① |①-②-|
口口口口 |③-④-|
④口口④
口②②口

⑦口口⑦
口⑤⑤口
口口口口 |⑤-⑥-|
⑥口口⑥ |⑦---|
10
口口口⑦ |①-②-|
①⑦口口 |③-④-|
③口②口 |⑤⑥-⑦|
⑤⑥④口 |----|
11
口口⑦口 |①-②-|
⑦口口① |③-④-|
口②口③ |⑤⑥-⑦|
口④⑥⑤ |----|
12
⑥口口③ |①-②-|
④④①① |③---|
⑤⑤②② |④-⑤-|
③口口⑥ |⑥---|
13
⑦①①口 |①-②-|
口③③⑤ |③-④-|
⑥④④口 |⑤⑥-⑦|
口②②⑦ |----|
14
⑥口①② |①-②-|
口口口③ |③-④-|
④口口口 |--⑤-|
⑤④口⑥ |⑥---|
15
口①⑤④ |①-②-|
口②口口 |③-④-|
口口口口 |----|
④⑤③口 |--⑤-|
16
④②口口 |--①-|
口口口⑥ |②-③-|
口口口⑥ |④-⑤-|
⑤口①③ |⑥---|
17
口口口口 |①---|
①口口口 |----|
①口口口 |----|
口口口口 |----|
18
口②口② |①---|
口口口口 |②---|
③口④口 |③-④-|
①⑤①⑥ |⑤-⑥-|
19
①②①② |①---|
①①①口 |--②-|
口①口口 |③---|
③口③口 |----|
20
②口②口 |①---|
口口口口 |②---|
口口口口
口①口①

口口口口
口④口③
口口口⑤ |③-④-|
口⑥口口 |⑤-⑥-|
21
口口口口 |①---|
①②①③ |--②-|
①②①③ |③---|
口口口口 |----|
22
⑦口④口 |①-②-|
⑤③口口 |③-④-|
⑥口②口 |⑤-⑥-|
⑧①口口 |⑦-⑧-|
23
口④口⑦ |①-②-|
口口③⑤ |③-④-|
口②口⑥ |⑤-⑥-|
口口①⑧ |⑦-⑧-|
24
口③①口 |①---|
①口口③ |②---|
口④②口 |③---|
②口口④ |④---|
25
①口口① |①-②-|
口②③④ |③-④-|
①口口① |⑤-⑥-|
⑧⑦⑥⑤ |⑦-⑧-|
26
口口①② |①---|
口③④口 |②---|
口⑤①② |③-④-|
口口⑥口 |⑤-⑥-|
27
口①⑤③ |①---|
①口口口 |②-③-|
④口口② |④-⑤-|
口④⑥口 |--⑥-|
28
②①口口 |①---|
口④③口 |②---|
②①⑤口 |③-④-|
口⑥口口 |⑤-⑥-|
29
口⑤④口 |①---|
②口口④ |②-③-|
口口口① |④-⑤-|
③⑥①口 |--⑥-|
30
口口口口 |①-②-|
口③口口 |③-④-|
①④口口
口口口②

口口口⑦
口口口⑥
口口⑤口 |⑤-⑥-|
口口口⑧ |⑦-⑧-|
31
口口③口 |①-②-|
口口口口 |③-④-|
口口④①
②口口口

⑦口口口
⑥口口口
口⑤口口 |⑤-⑥-|
⑧口口口 |⑦-⑧-|
32
③③口口 |①---|
④④口口 |②---|
口口②② |③---|
口口①① |④---|
33
口口口① |①---|
口口口① |----|
①口口口 |----|
①口口口 |----|
34
口②口口 |①---|
①②口口 |--②-|
①口②② |----|
③①①③ |③---|
35
⑤口口⑤ |--①-|
口口口口 |②-③-|
①②②① |④-⑤-|
④③③④ |----|
36
口口①口 |①---|
①①①口 |--②-|
口②②②
口②口口

口口③口
口口口口
③口口口 |----|
口口口口 |③---|
37
口口④④ |--①-|
口①①口 |--②-|
③①①口 |③-④-|
口口口② |----|
38
口口④④ |①-②-|
口口③⑥ |③-④-|
口口②口 |--⑤-|
口口①⑤ |⑥---|
39
④④口口 |①-②-|
口③⑥口 |③-④-|
口②⑥口 |--⑤-|
⑤①口口 |⑥---|
40
②④⑥⑧ |①-②-|
①③⑤⑦ |③-④-|
②④⑥⑧ |⑤-⑥-|
口口口口 |⑦-⑧-|
41
①④⑦⑨ |①-②③|
⑧④⑦⑩ |④-⑤⑥|
①口口⑨ |⑦-⑧-|
⑤⑥③② |⑨-⑩-|
42
①②④③ |①---|
⑤④②⑤ |②---|
口①③口 |③---|
口⑤⑤口 |④-⑤-|
43
①②口口 |--①②|
口⑤⑤口 |③-④-|
④⑥⑥③ |--⑤-|
⑦口口⑦ |⑥-⑦-|
44
⑤①③口 |①---|
③口口① |②---|
②口口④ |③---|
口④②⑤ |④-⑤-|
45
口③口③ |--①-|
口③③③ |②-③-|
口②③口 |----|
④口①④ |--④-|
46
④口①口 |①-②-|
②口口③ |③-④-|
口③口②
口①④口

口口⑥⑤
口⑥口口
⑤口⑦口 |⑤---|
口口口⑦ |⑥-⑦-|
47
⑤①口口 |①-②-|
②⑥④⑦ |③-④-|
口⑧口③ |⑤-⑥-|
口口口口 |⑦-⑧-|
48
口口口口 |①-②-|
口口口口 |③-④-|
③口③④
①口①②

口⑤⑤口
口⑥口口
口⑦口口 |⑤-⑥-|
口⑧⑧口 |⑦-⑧-|
49
口口④④ |①-②-|
③⑤⑥口 |③-④-|
②口口口 |⑤---|
⑦⑧口① |⑥-⑦⑧|
50
②口口口 |①-②-|
口③口口 |③-④-|
口口④①
口口口口

⑧口口⑧
⑤口⑦口
⑧⑥口⑧ |⑤-⑥-|
口口口口 |⑦-⑧-|
51
口①①口 |①-②③|
⑤⑥口口 |④-⑤⑥|
口口口口
②③④口

⑨⑪口⑩
口口⑦⑧
口口口口 |⑦⑧⑨-|
口口口口 |⑩-⑪-|
52
口口口口 |①---|
口口口口 |②---|
①②②①
②①①②

③④④③
⑤③③口
⑤口口口 |③---|
口⑤口口 |④-⑤-|
53
③口口③ |--①-|
口⑦⑥① |②-③-|
口⑤④① |④---|
②口①② |⑤-⑥⑦|
54
口⑤①口 |①-②-|
②口口⑥ |③-④-|
口⑦③口 |⑤-⑥-|
⑧口口④ |⑦-⑧-|
55
口口⑤① |①-②-|
口口②⑥ |③-④-|
⑦口④⑧ |⑤-⑥-|
口口口③ |⑦-⑧-|
56
①口口口 |①---|
②①口口 |②---|
口口②口
口口①口

⑤口口③
口口③④
⑤④口口 |③---|
口③口口 |④-⑤-|
57
口口口② |--①-|
①⑤④口 |②-③-|
口口口② |----|
口③③口 |--④⑤|
58
②⑥⑤① |①-②-|
②口口① |③-④-|
④⑤⑥③ |⑤---|
④⑦⑦③ |⑥-⑦-|
59
口口口口 |①②③-|
口①②③ |④---|
口口口口
④口口口

口⑤⑤口
⑥⑦⑧口
口⑧⑦⑥ |⑤-⑥-|
口口口口 |⑦-⑧-|
60
②口口② |①---|
口口口口 |②---|
口口口口
①口口①

口③③口
口口口口
⑤口口⑤ |③---|
⑤④④⑤ |④-⑤-|
61
口③②③ |--①-|
①③③③ |②-③-|
口口③口 |----|
口④口④ |--④-|
62
①③①③ |①-②-|
⑥⑤⑤⑥ |③-④-|
⑦④④⑦ |⑤---|
②口②口 |⑥-⑦-|
63
⑥口口⑥ |①②③-|
⑦⑧⑨⑩ |④-⑤-|
口④⑤口 |⑥--⑦⑧⑨|
①②③口 |⑩---|

不確定度: 0

最終更新:2014年08月01日 22:30