キミ記念日~生まれて来てくれてアリガトウ。~
ソナーポケット

ADVANCED

Level: 5
BPM: 127
Notes: 336

1
口口口口 |----|
口口口口 |----|
口口口口 |----|
口口口口 |----|
2
口口口口 |----|
口口口口 |----|
口口口口 |----|
口口口口 |----|
3
口口口口 |①---|
口①①口 |----|
口口口口 |----|
口口口口 |----|
4
口口口口 |①---|
口口口口 |----|
口①①口 |----|
口口口口 |----|
5
口口口口 |①---|
口口口口 |----|
①口口① |----|
口口口口 |----|
6
口口口口 |①---|
①口口① |----|
口口口口 |----|
口口口口 |----|
7
口口口口 |①---|
口口②口 |----|
口①口口 |②---|
口口口口 |----|
8
口口口口 |①---|
口②口口 |----|
口口①口 |②---|
口口口口 |----|
9
口口口口 |①---|
口口口口 |----|
口②②口 |②---|
①口口① |----|
10
②口口② |①---|
①口口① |②---|
口口口口 |----|
口口口口 |----|
11
口口口口 |①---|
口⑤④口 |②---|
①口口② |③---|
口③③口 |④-⑤-|
12
口②①口 |----|
口④③口 |----|
口口口口 |①-②-|
口口口口 |③-④-|
13
口④⑤口 |①---|
口口口口 |②---|
口②③口 |③---|
口口①口 |④-⑤-|
14
口口②口 |----|
口③④口 |--①-|
口口①口 |②-③-|
口⑤⑤口 |④-⑤-|
15
口③④口 |----|
口口口口 |----|
口口②口 |①-②-|
口①口口 |③-④-|
16
口口口口 |①---|
口①①口 |--②-|
口②②口
口口口口

口口口口
口③④口
⑤口口⑤ |--③-|
口口口口 |④-⑤-|
17
口口口口 |----|
口口口口 |----|
口口口口 |--①-|
口①②③ |②-③-|
18
口口口口 |①---|
④①③④ |②-③-|
口口②口 |--④-|
口口口口 |----|
19
口口口口 |----|
口口口口 |--①-|
口④③② |--②-|
①口口口 |③-④-|
20
口③④口 |①-②-|
⑤①②⑤ |③-④-|
口口口口 |--⑤-|
口口口口 |----|
21
口⑤⑤口 |----|
③口口④ |--①-|
①口口② |②-③-|
口口口口 |④-⑤-|
22
口⑥⑥口 |①---|
④口口⑤ |--②-|
②①①③ |③-④-|
口口口口 |⑤-⑥-|
23
口口口口 |①---|
④②③口 |--②-|
口①①口 |③---|
口口口口 |--④-|
24
口口口口 |①-②-|
口口口① |③-④-|
口④③口
口②口口

口口口口
⑥口口⑥
⑤口口⑤ |⑤---|
口口口口 |⑥---|
25
口口口口 |----|
口口口口 |--①-|
⑤④③② |②-③-|
①口口口 |④-⑤-|
26
口口口口 |①---|
②口口④ |②-③-|
口③口口 |--④-|
口口①口 |----|
27
口口口口 |----|
口口口口 |--①-|
⑤④③② |②-③-|
①口口口 |④-⑤-|
28
口口口口 |①---|
②口口③ |②-③-|
口④口口 |--④-|
口口①口 |----|
29
口⑤⑤口 |----|
③口口④ |--①-|
①口口② |②-③-|
口口口口 |④-⑤-|
30
口口口口 |①---|
口口口口 |--②-|
②①①口
口口口口

口口口口
口⑥⑤口
口④口③ |③-④-|
口口口口 |⑤-⑥-|
31
①④①④ |①--②|
口口③口 |--③-|
②⑤②⑤ |④--⑤|
⑥口口口 |--⑥-|
32
口④口口 |①-②-|
②口③① |③-④-|
口⑤⑤口 |⑤---|
口⑥⑥口 |⑥---|
33
口口口口 |----|
口③②口 |--①-|
口⑤④口 |②-③-|
口①口口 |④-⑤-|
34
口口口口 |①---|
①④③① |--②-|
口⑥⑤口 |③-④-|
口②口口 |⑤-⑥-|
35
口②③口 |①---|
口口口口 |②-③-|
①口口①
口口口口

口口口口
口口口口
④⑤⑥口 |--④-|
口口口口 |⑤-⑥-|
36
口口口口 |----|
口口口口 |----|
①口口口 |----|
口口口口 |--①-|
37
口④④口 |①-②-|
②口口③ |③-④-|
⑥⑤⑤① |⑤---|
口口口口 |--⑥-|
38
口④④口 |①-②-|
②口⑥③ |③-④-|
口⑤⑤① |⑤---|
口口口口 |--⑥-|
39
口口口口 |①---|
口①口口 |--②-|
②口口②
口口口口

口口口口
⑥⑤⑤⑥
口④④口 |③-④-|
口③③口 |⑤-⑥-|
40
口①①口 |①---|
④口口口 |--②-|
口⑥⑥③ |③-④-|
②口⑤口 |⑤-⑥-|
41
①③③① |①---|
④口口口 |--②-|
②口口② |③---|
口口口口 |--④-|
42
口口口口 |①-②-|
口口④③ |③-④-|
口①②口
口口口口

口口口口
口⑥口⑧
⑤口⑦口 |⑤-⑥-|
口口口口 |⑦-⑧-|
43
①③③① |①---|
口口口口 |--②-|
②口口② |③---|
口④口口 |--④-|
44
口②口口 |①-②-|
口④③口 |③-④-|
⑤口①⑤ |⑤---|
⑥口口口 |--⑥-|
45
口口口口 |①-②-|
②口⑤① |③-④-|
④⑥⑥③ |⑤-⑥-|
口⑦⑦口 |⑦---|
46
口口口口 |①-②-|
②口⑤① |③-④-|
④⑥⑥③ |⑤-⑥-|
口⑦⑦口 |⑦---|
47
口口口口 |--①-|
口⑦⑦口 |②-③-|
①⑤⑥② |④-⑤-|
③口口④ |⑥-⑦-|
48
①口口① |--①-|
口⑤④口 |②-③-|
③⑤④② |④-⑤-|
⑥⑥⑦⑦ |⑥-⑦-|
49
①③③① |①---|
④口口口 |--②-|
②口口② |③---|
口口口口 |--④-|
50
口口口口 |①-②-|
口口④③ |③-④-|
口①②口
口口口口

口口口口
口⑥口⑧
⑤口⑦口 |⑤-⑥-|
口口口口 |⑦-⑧-|
51
①③③① |①---|
口口口口 |--②-|
②口口② |③---|
口④口口 |--④-|
52
口②口口 |①-②-|
口④③口 |③-④-|
口口①口
口口口口

⑤口口⑤
⑥口口⑥
⑦⑧⑧⑦ |⑤-⑥-|
口口口口 |⑦-⑧-|
53
③口口③ |①---|
④②口④ |②-③-|
口口口口 |--④-|
①口⑤① |--⑤-|
54
口口口口 |①-②-|
口③④口 |③-④-|
①口口②
口口口口

口口口口
口⑦口口
口口⑥口 |--⑤-|
口⑤口口 |⑥-⑦-|
55
①口口① |①---|
②口口② |②---|
③口口③ |③---|
④口口④ |④---|
56
②口口② |①---|
口③口口 |②-③-|
口①①口
口口口口

口口口口
口口④口
口⑥⑥口 |④---|
口⑤⑤口 |⑤-⑥-|


不確定度: 0

最終更新:2013年08月01日 14:57