こどなの階段
南波志帆

EXTREME

Level: 8
BPM: 138
Notes: 633

1
口口口口 |----|
口口口口 |----|
口口口口 |----|
口口口口 |----|
2
口口口口 |①---|
口口口③ |②-③-|
①口④口 |--④-|
口②⑤口 |--⑤-|
3
口口口口 |----|
①口口口 |--①-|
口②口④ |②-③-|
口口③口 |④---|
4
口口①口 |①---|
口口口口 |②-③-|
口②口口
口③口口

口口口口
④口口④
口⑤⑤口 |----|
口口口口 |④-⑤-|
5
②口口② |----|
口①①口 |①-②-|
③口口口 |----|
口口口口 |--③-|
6
口口口口 |①---|
口口口③ |②-③-|
口①④口 |--④-|
口②⑤口 |--⑤-|
7
口口口口 |----|
①口口口 |--①-|
口②口④ |②-③-|
口口③口 |④---|
8
口口①口 |①---|
④口口④ |②-③-|
⑤②口⑤ |----|
口③口口 |④-⑤-|
9
口②口口 |--①-|
②①①口 |--②-|
口口②口
口②口口

口口③④
口口④③
口③口口 |--③-|
④口③口 |--④-|
10
口口口口 |----|
口口口口 |--①-|
口口口口 |----|
口①①口 |----|
11
⑦口口④ |①-②-|
⑧口口③ |③-④-|
①②⑥⑤ |⑤-⑥-|
口口口口 |⑦-⑧-|
12
口口②口 |①-②-|
口①③口 |③-④-|
口口④口
口口口口

口口口口
口⑥口口
口⑦口口 |⑤-⑥-|
口⑧⑤口 |⑦-⑧-|
13
口口口口 |①-②-|
①⑥②口 |③-④-|
⑦口口③ |⑤-⑥-|
⑧⑤④口 |⑦-⑧-|
14
口口口口 |①-②-|
口口①④ |③-④-|
口②口口
口③口口

口口⑧口
口口⑦口
口口⑤口 |⑤-⑥-|
口口⑥口 |⑦-⑧-|
15
⑦口口④ |①-②-|
⑧口口③ |③-④-|
①②⑥⑤ |⑤-⑥-|
口口口口 |⑦-⑧-|
16
口口②口 |①-②-|
口①③口 |③-④-|
口口④口
口口口口

口口口口
口⑥口口
口⑦口口 |⑤-⑥-|
口⑧⑤口 |⑦-⑧-|
17
口口口口 |①-②-|
①口②口 |③-④-|
口口口③
口口④口

口口口口
口⑥口口
⑦口口⑧ |⑤-⑥-|
⑧⑤口口 |⑦-⑧-|
18
⑦⑤③① |--①-|
⑥④②口 |②-③-|
口口口口 |④-⑤-|
口口口口 |⑥-⑦-|
19
口口口口 |①-②-|
口口口② |③-④-|
口①①④
口③③口

口口口口
⑦⑤⑤⑧
口⑦⑧口 |⑤-⑥-|
口口口⑥ |⑦-⑧-|
20
口①①口 |①---|
口口口口 |②---|
口口口口
②②②②

④④④④
口口口口
口口口③ |③---|
口口口口 |④---|
21
口口口口 |①-②-|
口口口② |③-④-|
口①①④
口③③口

口口口口
⑦⑤⑤⑧
口⑦⑧口 |⑤-⑥-|
口口口⑥ |⑦-⑧-|
22
口①①口 |①---|
口口口口 |②---|
口口口口
②②②②

④④④④
口口口③
⑤口口口 |③---|
口口口口 |④-⑤-|
23
口口口口 |①-②-|
口口口② |③-④-|
口①①④
口③③口

口口口口
⑦⑤⑤⑧
口⑦⑧口 |⑤-⑥-|
口口口⑥ |⑦-⑧-|
24
口①①口 |①---|
④⑤⑥口 |②---|
口口口③ |③-④-|
②②②② |⑤-⑥-|
25
口②③口 |①---|
②口口③ |②-③-|
①口口口
口①口口

口⑥口口
⑥口口口
⑤口口④ |④---|
口⑤④口 |⑤-⑥-|
26
口④①口 |--①-|
⑤⑤④① |②-③-|
③口口② |④---|
口③②⑥ |⑤-⑥-|
27
口口口口 |①-②-|
口口口② |③-④-|
口①①④
口③③口

口口口口
⑦⑤⑤⑧
口⑦⑧口 |⑤-⑥-|
口口口⑥ |⑦-⑧-|
28
口①①口 |①---|
口口口口 |②---|
口口口口
②②②②

④④④④
口口口口
口口口③ |③---|
口口口口 |④---|
29
口口口口 |①-②-|
口口口② |③-④-|
口①①④
口③③口

口口口口
⑦⑤⑤⑧
口⑦⑧口 |⑤-⑥-|
口口口⑥ |⑦-⑧-|
30
口①①口 |①---|
口口口口 |②---|
口口口口
②②②②

④④④④
口口口③
⑤口口口 |③---|
口口口口 |④-⑤-|
31
口口口口 |①-②-|
口口口② |③-④-|
口①①④
口③③口

口口口口
⑦⑤⑤⑧
口⑦⑧口 |⑤-⑥-|
口口口⑥ |⑦-⑧-|
32
口①①口 |①---|
④⑤⑥口 |②---|
口口口③ |③-④-|
②②②② |⑤-⑥-|
33
口②③口 |①---|
②口口③ |②-③-|
①口口口
口①口口

口⑥口口
⑥口口口
⑤口口④ |④---|
口⑤④口 |⑤-⑥-|
34
口口①口 |--①-|
口口口① |②-③-|
③口口②
口③②口

口口口口
口⑤④口
口④⑤⑥ |④---|
口口口口 |⑤-⑥-|
35
口口①① |①---|
口口②口 |②---|
口③③口 |③---|
口④⑤口 |④-⑤-|
36
口口口④ |①-②-|
①②口③ |③-④-|
口口口口
口口口口

口口口口
口口口⑧
⑤⑥口⑦ |⑤-⑥-|
口口口口 |⑦-⑧-|
37
口口①① |①---|
口口②口 |②---|
口口口口
口口口口

口口口口
口口⑤口
口③③口 |③---|
口④口口 |④-⑤-|
38
口口口口 |①-②-|
①②口口 |③-④-|
口口③口
口④口口

口口口口
口口口⑦
口口⑧口 |⑤-⑥-|
口口⑤⑥ |⑦-⑧-|
39
①①口口 |①---|
口②口口 |②---|
口③③口 |③---|
口④⑤口 |④-⑤-|
40
口口口④ |①---|
①①①① |----|
②口③口 |②-③-|
口口口口 |--④-|
41
口③口口 |①-②-|
④②①口 |③-④-|
口口口口
口口口口

口口口口
口口⑥口
口⑤口⑦ |⑤-⑥-|
口⑧⑧口 |⑦-⑧-|
42
④口口⑤ |--①-|
⑥③③⑦ |②-③-|
⑧②①⑨ |--④⑤|
口口口口 |⑥⑦⑧⑨|
43
口①①口 |①---|
⑤②②⑤ |②-③-|
口③④口 |--④-|
口④③口 |--⑤-|
44
口口口口 |①-②-|
口口口口 |③-④-|
口①③口
口口②④

口⑥⑤口
⑥口口⑤
⑤口口⑥ |⑤---|
口⑤⑥口 |⑥---|
45
口口口口 |①---|
口①①口 |②-③-|
口②②口
口③③口

口口口口
口⑤⑤口
④口口④ |----|
口口口口 |④-⑤-|
46
②②②② |----|
口口口口 |①-②-|
口口口口
口①①口

口口口口
口口口口
③口④③ |--③-|
口④口口 |--④-|
47
口①①口 |①---|
⑤②②⑤ |②-③-|
口③④口 |--④-|
口④③口 |--⑤-|
48
口口口口 |①-②-|
口口口口 |③-④-|
口①③口
口口②④

口⑥⑤口
⑥口口⑤
⑤口口⑥ |⑤---|
口⑤⑥口 |⑥---|
49
口口口口 |①---|
口①①口 |②-③-|
口②②口
口③③口

口口口口
口⑤⑤口
④口口④ |----|
口口口口 |④-⑤-|
50
②④③② |--①-|
④口口③ |--②-|
③①①④ |--③-|
口③④口 |--④-|
51
口口口口 |①---|
口②②口 |②-③-|
口③①口
③口口口

口口口口
⑤口口⑤
口口④口 |--④-|
口④口口 |--⑤-|
52
口口口口 |①-②-|
口口口口 |③-④-|
口①③口
口口②④

口⑥⑤口
⑥口口⑤
⑤口口⑥ |⑤---|
口⑤⑥口 |⑥---|
53
口口口口 |①---|
口①①口 |②-③-|
口②②口
口③③口

口口口口
口⑤⑤口
④口口④ |----|
口口口口 |④-⑤-|
54
②②②② |----|
口口口口 |①-②-|
口口口口
口①①口

口口口口
口口口口
③口④③ |--③-|
口④口口 |--④-|
55
口①①口 |①---|
⑤②②⑤ |②-③-|
口③④口 |--④-|
口④③口 |--⑤-|
56
口口口口 |①-②-|
口口口口 |③-④-|
口①③口
口口②④

口⑥⑤口
⑥口口⑤
⑤口口⑥ |⑤---|
口⑤⑥口 |⑥---|
57
口口口口 |①---|
口①①口 |②-③-|
口②②口
口③③口

口口口口
口⑤⑤口
④口口④ |----|
口口口口 |④-⑤-|
58
②④③② |--①-|
④口口③ |--②-|
③①①④ |--③-|
口③④口 |--④-|
59
①口口④ |①-②-|
口口口③ |③-④-|
口②口口
①口口口

⑦口口口
⑧口口口
口口⑥⑤ |⑤-⑥-|
口口口口 |⑦-⑧-|
60
口口②口 |①-②-|
口①③口 |③-④-|
口口④口
口口口口

口口口口
口⑥口口
口⑦口口 |⑤-⑥-|
口⑧⑤口 |⑦-⑧-|
61
口口口口 |①-②-|
①⑥②口 |③-④-|
⑦口口③ |⑤-⑥-|
⑧⑤④口 |⑦-⑧-|
62
口口口口 |①-②-|
口口①④ |③-④-|
口②口口
口③口口

口口⑧口
口口⑦口
口口⑤口 |⑤-⑥-|
口口⑥口 |⑦-⑧-|
63
①口口④ |①-②-|
口口口③ |③-④-|
①②口口
口口口口

⑦口口口
⑧口口口
口口⑥⑤ |⑤-⑥-|
口口口口 |⑦-⑧-|
64
口口②口 |①-②-|
口①③口 |③-④-|
口口④口
口口口口

口口口口
口⑥口口
口⑦口口 |⑤-⑥-|
口⑧⑤口 |⑦-⑧-|
65
口口口③ |①-②-|
①口②④ |③-④-|
⑤口⑥口 |⑤-⑥-|
口⑦口⑧ |⑦-⑧-|
66
①①②口 |①-②-|
③③口④ |③-④-|
⑤⑤⑥口 |⑤-⑥-|
⑦⑦口⑧ |⑦-⑧-|
67
③③②① |①-②-|
⑦⑦⑥⑤ |③-④-|
口口口④ |⑤-⑥-|
口口口⑧ |⑦-⑧-|
68
口口口口 |①-②-|
④口口口 |③-④-|
③③②①
口口口口

口口口口
口⑧⑧口
口⑧⑧口 |⑤-⑥-|
⑦⑦⑥⑤ |⑦-⑧-|


不确定度: 0

最終更新:2012年11月08日 04:20