ViViD
May'n

EXTREME

Level: 9
BPM: 205
Notes: 595

1
口口口口 |----|
口口口口 |----|
口口口口 |----|
口口口口 |----|
2
口口口口 |----|
口口口口 |----|
口口口口 |----|
口口口口 |----|
3
②口⑥⑥ |①-②-|
口⑤口口 |--③-|
①口④口 |--④-|
③③口口 |⑤-⑥-|
4
口口口口 |--①-|
口口③口 |--②-|
①①口口 |--③-|
④④②② |④---|
5
口⑥口② |①-②-|
口口⑤口 |--③-|
口④口① |--④-|
口口③③ |⑤-⑥-|
6
口口①口 |--①-|
③①口③ |--②-|
口口②口 |----|
③②口③ |③---|
7
①②③⑦ |①-②-|
口⑥⑦口 |③-④-|
口口⑤④ |--⑤-|
口口④口 |⑥-⑦-|
8
口口口口 |--①-|
①⑤口口 |--②-|
口①④② |--③-|
③口②口 |④-⑤-|
9
⑦③②① |①-②-|
口⑦⑥口 |③-④-|
④⑤口口 |--⑤-|
口④口口 |⑥-⑦-|
10
口口口口 |--①-|
口口⑤① |--②-|
②④①口 |--③-|
口②口③ |④-⑤-|
11
①②③⑦ |①-②-|
口⑥⑦口 |③-④-|
口口⑤④ |--⑤-|
口口④口 |⑥-⑦-|
12
口口口口 |--①-|
①⑤口口 |--②-|
口①④② |--③-|
③口②口 |④-⑤-|
13
⑦③②① |①-②-|
口口⑥口 |③-④-|
④⑤口口 |--⑤-|
口④口口 |⑥-⑦-|
14
口⑤③① |①---|
口口口口 |②-③-|
口⑤③① |--④-|
口口④② |⑤---|
15
②⑤④口 |①-②-|
口口口口 |--③-|
②⑤④口 |④---|
③①口口 |⑤---|
16
口口②口 |①---|
①口口① |----|
口口口口 |----|
口口口口 |②---|
17
口口⑤⑤ |①---|
口②口口 |②---|
口口口① |③-④-|
③口④口 |--⑤-|
18
口口口口 |----|
口口口口 |----|
口口口口 |----|
口口①口 |①---|
19
③口⑤⑤ |①---|
口口口① |②---|
口②口口 |③-④-|
口口口④ |--⑤-|
20
口口口口 |----|
口口口口 |----|
口口口口 |----|
①口①口 |①---|
21
③③①① |①---|
口口口口 |②---|
④口口④ |③---|
口②口② |④---|
22
口口口① |①---|
②口①口 |②-③-|
口②口口 |----|
口③③口 |----|
23
口口口口 |----|
②口口① |----|
口口口口 |①---|
口口口口 |②---|
24
②口口口 |①---|
口④③口 |----|
口口口口 |--②-|
口①①口 |③-④-|
25
口③③① |①---|
口口口口 |②---|
口口口口 |③---|
④②②④ |④---|
26
⑤③③② |①---|
①口口② |②---|
①口口口 |③-④-|
口④④⑤ |--⑤-|
27
口口口口 |----|
口②②口 |----|
口①①口 |①---|
口口口口 |②---|
28
口①①口 |①---|
⑤口口⑥ |②-③-|
口口口④ |--④-|
口③②口 |⑤-⑥-|
29
①①⑤② |①---|
口口⑤口 |②-③-|
③口口口 |④---|
口口④④ |⑤---|
30
口口口② |①---|
口口口② |②-③-|
③①口口 |----|
③①口口 |----|
31
⑧⑦④③ |①-②-|
口口口口 |③-④-|
口⑥⑤② |⑤-⑥-|
口①①口 |⑦-⑧-|
32
口口④③ |①---|
口口口④ |②-③-|
口口口口 |----|
②①①口 |④---|
33
④⑤⑤口 |①---|
口②口口 |②---|
①口②口 |③-④-|
口①口③ |--⑤-|
34
口口口③ |①---|
口口④口 |②-③-|
口口口④ |----|
②①①口 |④---|
35
②⑤⑤口 |①---|
①口口④ |②---|
③①口口 |③-④-|
口口口② |--⑤-|
36
口口口③ |①---|
④口口口 |②-③-|
口口口口 |----|
②①①④ |④---|
37
④③①④ |①---|
口口口② |②---|
口③①口 |③---|
②口口口 |④---|
38
口口②口 |①---|
口④④口 |②-③-|
①口口① |----|
口③口口 |④---|
39
②口口② |①---|
口口口口 |②---|
①④③① |③-④-|
⑥口口⑤ |⑤-⑥-|
40
口口⑤④ |①-②-|
⑥口①口 |③-④-|
口口⑦③ |--⑤-|
口口②口 |⑥-⑦-|
41
④⑥口口 |①-②-|
口①口⑦ |③-④-|
③⑧口口 |⑤-⑥-|
口②口⑤ |⑦-⑧-|
42
口口⑥④ |①-②-|
⑦口①口 |③-④-|
口口⑧③ |⑤-⑥-|
⑤口②口 |⑦-⑧-|
43
口⑥口口 |①---|
口口⑤口 |②---|
②④口② |③-④-|
口①③口 |⑤-⑥-|
44
②口①① |①---|
口口口口 |②-③-|
口口③③ |----|
④口④口 |④---|
45
③③①① |①---|
口口口④ |②---|
④口口口 |③---|
口②口② |④---|
46
③③①① |①---|
口口口口 |②---|
口口口口 |③---|
口④②口 |④---|
47
口④③口 |①---|
口②②口 |②---|
①口口① |③---|
③口口④ |④---|
48
②⑤④① |①-②-|
⑤③③④ |--③-|
口口口口 |--④-|
④①②⑤ |⑤---|
49
口口口口 |----|
①口口① |----|
口口口口 |----|
①口口① |①---|
50
①⑤②⑤ |①-②-|
口①⑤口 |③-④-|
⑥③⑦④ |⑤---|
口⑥③口 |⑥-⑦-|
51
④③④③ |①---|
①①口① |②---|
④口口③ |③---|
②口②② |④---|
52
口口口口 |①---|
①口口① |②-③-|
⑤口口④ |----|
口③②口 |④-⑤-|
53
⑦⑤③① |①-②-|
⑦⑤③① |③-④-|
口口口口 |⑤-⑥-|
⑧⑥④② |⑦-⑧-|
54
口⑤④③ |①---|
口口口口 |②-③-|
口①①口 |----|
口口口② |④-⑤-|
55
⑧口口④ |①-②-|
⑤⑤①① |③-④-|
⑦⑦③③ |⑤-⑥-|
口②⑥口 |⑦-⑧-|
56
口⑤②口 |①---|
④口口① |②-③-|
口⑥③口 |④---|
④口口① |⑤-⑥-|
57
④口口① |①-②-|
⑤④①⑤ |③-④-|
②口口③ |--⑤-|
⑤②③⑤ |----|
58
⑤①⑤② |①-②-|
口⑤①口 |③-④-|
③⑥④⑦ |⑤---|
口③⑥口 |⑥-⑦-|
59
③④③④ |①---|
①口①① |②---|
口④③口 |③---|
②②口② |④---|
60
口口口口 |①---|
①口口① |②-③-|
⑤口口④ |----|
口③②口 |④-⑤-|
61
⑤⑤①① |①-②-|
口②⑥口 |③-④-|
口④⑧口 |⑤-⑥-|
⑦⑦③③ |⑦-⑧-|
62
口口⑤③ |①---|
①口口① |②-③-|
口口口口 |----|
口④口② |④-⑤-|
63
①口口⑤ |①-②-|
①⑥②⑤ |③-④-|
③④⑧⑦ |⑤-⑥-|
③口口⑦ |⑦-⑧-|
64
①①⑤⑤ |①---|
②口口⑥ |②③④-|
口③⑦口 |⑤---|
口⑧④口 |⑥⑦⑧-|
65
①①口口 |①-②-|
④②②口 |③-④-|
口④口⑤ |--⑤-|
③⑥⑤③ |--⑥-|
66
①①①① |①---|
口⑤口② |②-③-|
③口口⑥ |④-⑤-|
口⑦口④ |⑥-⑦-|
67
①①①① |①---|
口口③② |②-③-|
④⑤口口 |④-⑤-|
口口⑦⑥ |⑥-⑦-|
68
①①①① |①---|
口口口② |②-③-|
⑤口④③ |④-⑤-|
⑥⑦口口 |⑥-⑦-|
69
口口口① |①-②-|
口④⑦口 |③-④-|
⑥②口口 |⑤-⑥-|
口⑧⑤③ |⑦-⑧-|
70
①①①① |①---|
④口口② |②-③-|
口③口口 |④-⑤-|
口口⑤⑥ |⑥---|
71
②①①② |①---|
③②②③ |--②-|
①口口① |----|
③口口③ |③---|
72
③③①口 |①---|
口②②口 |--②-|
口口②① |----|
口①③口 |③---|
73
口口①口 |--①-|
口口②① |----|
①③③口 |②---|
②②口口 |③---|
74
③①口① |①---|
①口口② |--②-|
②口③② |----|
口口口③ |③---|
75
口口口② |--①-|
①①①② |----|
口③③口 |②---|
口②口口 |③---|
76
②③①③ |①---|
口②口口 |--②-|
①③③① |----|
①口②② |③---|
77
口口①口 |--①-|
①口口① |----|
①口口① |----|
口①口口 |----|

不確定度: 0

最終更新:2014年07月20日 00:55