梅雪夜
Qrispy Joybox feat.mao

BASIC

Level: 3
BPM: 167
Notes: 242

1
口口口口 |----|
口口口口 |----|
口口口口 |----|
口口口口 |----|
2
口口口口 |①---|
口①①口 |----|
口①①口 |----|
口口口口 |----|
3
口口口口 |①---|
口口口口 |----|
口口口口 |②---|
①口口② |----|
4
口口口口 |①---|
口①①口 |----|
口①①口 |----|
口口口口 |----|
5
①口口② |①---|
口口口口 |----|
口口口口 |②---|
口口口口 |----|
6
口口口口 |①---|
口①①口 |----|
口①①口 |----|
口口口口 |----|
7
口口口口 |①---|
口口口口 |----|
口口口口 |②---|
①口口② |----|
8
口④④口 |①---|
口③③口 |②---|
口②②口 |③---|
口①①口 |④---|
9
口口口口 |①---|
③口口③ |②---|
②口口② |③---|
①口口① |----|
10
口①②口 |①---|
口口口口 |----|
口口口口 |②---|
口口口口 |----|
11
口口口口 |①---|
①②③口 |②---|
口口口口 |③---|
口口口口 |----|
12
口口口口 |①---|
口口口口 |----|
口①②口 |②---|
口口口口 |----|
13
口口口口 |①---|
口口口口 |②---|
口口口口 |③---|
口③②① |----|
14
口口口口 |①---|
口口口口 |----|
口①②口 |②---|
口口口口 |----|
15
口口口口 |①---|
①②③口 |②---|
口口口口 |③---|
口口口口 |----|
16
口口口口 |①---|
口口口口 |----|
①口口② |②---|
口口口口 |----|
17
口口口口 |①---|
口③③口 |②---|
口②②口 |③---|
口①①口 |----|
18
口①②口 |①---|
口口口口 |----|
口口口口 |②---|
口口口口 |----|
19
口口口口 |①---|
①②③口 |②---|
口口口口 |③---|
口口口口 |----|
20
口口口口 |①---|
口口口口 |----|
口①②口 |②---|
口口口口 |----|
21
口口口口 |①---|
口口口口 |②---|
口口口口 |③---|
口③②① |----|
22
口口口口 |①---|
口口口口 |----|
口①②口 |②---|
口口口口 |----|
23
口口口口 |①---|
①②③口 |②---|
口口口口 |③---|
口口口口 |----|
24
口口口口 |①---|
口口口口 |----|
①口口② |②---|
口口口口 |----|
25
口口口口 |①---|
口③③口 |②---|
口②②口 |③---|
口①①口 |----|
26
①口口② |①---|
口口口口 |----|
口口口口 |②---|
口口口口 |----|
27
口口口口 |①---|
①口口② |----|
口口口口 |②---|
口口口口 |----|
28
口口口口 |①---|
口口口口 |----|
①口口② |②---|
口口口口 |----|
29
口口口口 |①---|
口口口口 |----|
口口口口 |②---|
①口口② |----|
30
口①②口 |①---|
口口口口 |----|
口口口口 |②---|
口口口口 |----|
31
口口口口 |①---|
口①②口 |----|
口口口口 |②---|
口口口口 |----|
32
口④④口 |①---|
口③③口 |②---|
口②②口 |③---|
口①①口 |④---|
33
口口口口 |①---|
口③④口 |②---|
②口口② |③---|
①口口① |④---|
34
①口口① |①---|
②②口口 |----|
③③口口 |②---|
口口口口 |③---|
35
口口口口 |①---|
口②③口 |----|
口口口口 |②---|
①①口口 |③---|
36
①口口② |①---|
③口口④ |②---|
口口口口 |③---|
口口口口 |④---|
37
口口口口 |①---|
口②③口 |----|
①口口口 |②---|
口口口口 |③---|
38
①口口① |①---|
③口口口 |----|
口口口② |②---|
口口口口 |③---|
39
口口口① |①---|
口②口口 |②---|
口口③口 |③---|
口④口口 |④---|
40
口④口口 |①---|
口口③口 |②---|
口②口口 |③---|
口口①口 |④---|
41
口口口① |①---|
口口口口 |----|
口口口口 |----|
口口口口 |----|
42
①①口口 |①---|
②②口口 |----|
口口口口 |②---|
口口口口 |----|
43
口口①① |①---|
口口②② |----|
口口口口 |②---|
口口口口 |----|
44
口口口口 |①---|
口口口口 |②---|
口①②口 |③---|
口③④口 |④---|
45
口口口口 |①---|
口口口口 |②---|
①口口② |③---|
③口口④ |④---|
46
①①口口 |①---|
②②口口 |----|
口口口口 |②---|
口口口口 |----|
47
口口①① |①---|
口口②② |----|
口口口口 |②---|
口口口口 |----|
48
口口口口 |①---|
口口口口 |②---|
口①②口 |③---|
口③④口 |④---|
49
口口口口 |①---|
口③④口 |②---|
①口口② |③---|
口口口口 |④---|
50
①口口① |①---|
②②口口 |----|
③③口口 |②---|
口口口口 |③---|
51
口口口口 |①---|
口②③口 |----|
口口口口 |②---|
①①口口 |③---|
52
①口口② |①---|
③口口④ |②---|
口口口口 |③---|
口口口口 |④---|
53
口口口口 |①---|
口②③口 |----|
①口口口 |②---|
口口口口 |③---|
54
①口口① |①---|
③口口口 |----|
口口口② |②---|
口口口口 |③---|
55
口口口① |①---|
口②口口 |②---|
口口③口 |③---|
口④口口 |④---|
56
口④口口 |①---|
口口③口 |②---|
口②口口 |③---|
口口①口 |④---|
57
口口口① |①---|
口口口口 |----|
口口口口 |----|
口口口口 |----|
58
①①口口 |①---|
口口口口 |----|
②②口口 |②---|
口口口口 |----|
59
口口①① |①---|
口口口口 |----|
口口②② |②---|
口口口口 |----|
60
④口口④ |①---|
口③③口 |②---|
②口口② |③---|
口①①口 |④---|
61
口①①口 |①---|
口②②口 |②---|
口③③口 |③---|
口④④口 |④---|
62
①①口口 |①---|
口口口口 |----|
②②口口 |②---|
口口口口 |----|
63
口口①① |①---|
口口口口 |----|
口口②② |②---|
口口口口 |----|
64
④口口④ |①---|
口③③口 |②---|
②口口② |③---|
口①①口 |④---|
65
口①①口 |①---|
口口口口 |----|
口口口口 |----|
口口口口 |----|
66
口口口口 |----|
口口口口 |----|
口口口口 |----|
口口口口 |----|
67
口口口口 |----|
口口口口 |----|
口口口口 |----|
口口口口 |----|
68
口口口口 |----|
口口口口 |----|
口口口口 |----|
口口口口 |----|
69
口口口口 |----|
口口口口 |----|
口口口口 |----|
口口口口 |----|
70
口口口口 |①---|
口①①口 |----|
口①①口 |----|
口口口口 |----|


不確定度: 0

最終更新:2014年02月17日 17:49