トリカゴノ鳳凰
L.E.D. Vs. 幽閉サテライト

BASIC

Level: 4
BPM: 185
Notes: 438

1
口口口口 |----|
口口口口 |----|
口口口口 |----|
口口口口 |----|
2
口口口口 |①---|
口口口口 |----|
口口口口 |----|
口①①口 |----|
3
口口口口 |①---|
口口口口 |----|
口①①口 |----|
口口口口 |----|
4
口口口口 |①---|
口口口口 |----|
①口口① |----|
口口口口 |----|
5
①口口① |①---|
口口口口 |----|
口口口口 |----|
口口口口 |----|
6
口口口口 |①---|
口口口口 |----|
口口口口 |----|
口①①口 |----|
7
口口口口 |①---|
口口口口 |----|
口①①口 |----|
口口口口 |----|
8
口口口口 |①---|
口口口口 |----|
①口口① |----|
口口口口 |----|
9
口①①口 |①---|
口①①口 |----|
口口口口 |----|
口口口口 |----|
10
口口口口 |①---|
②口口④ |②---|
①口口③ |③---|
口口口口 |④---|
11
口口口口 |①---|
口②④口 |②---|
口①③口 |③---|
口口口口 |④---|
12
口口口口 |①---|
①②④③ |②---|
口口口口 |③---|
口口口口 |④---|
13
口口口口 |①---|
口口口口 |②---|
口口口口 |③---|
①②④③ |④---|
14
口②④口 |①---|
口口口口 |②---|
口①③口 |③---|
口口口口 |④---|
15
②口口④ |①---|
口口口口 |②---|
①口口③ |③---|
口口口口 |④---|
16
口①②口 |①---|
口口口口 |②---|
口③④口 |③---|
口口口口 |④---|
17
口口口口 |①---|
①口口② |②---|
口③④口 |③---|
口口口口 |④---|
18
口口口口 |①---|
①①口口 |----|
口口口② |②---|
口口口口 |----|
19
口口口口 |①---|
口口①① |----|
②口口口 |②---|
口口口口 |----|
20
口口口口 |①---|
口口口口 |----|
②①口② |②---|
口口①口 |----|
21
②口口② |①---|
口口口口 |----|
口口①口 |②---|
口①口口 |----|
22
口口②口 |①---|
①口口口 |----|
口①口口 |②---|
口口口口 |----|
23
口②口口 |①---|
口口口① |----|
口口①口 |②---|
口口口口 |----|
24
①口口① |①---|
口口口口 |----|
②口口② |②---|
口口口口 |----|
25
口口口口 |①---|
口①①口 |----|
口①①口 |----|
口口口口 |----|
26
口口口口 |①---|
②口口④ |②---|
①口口③ |③---|
口口口口 |④---|
27
口口口口 |①---|
口②④口 |②---|
口①③口 |③---|
口口口口 |④---|
28
①②③④ |①---|
口口口口 |②---|
口口口口 |③---|
口口口口 |④---|
29
口口口口 |①---|
口口口口 |②---|
④③②① |③---|
口口口口 |④---|
30
②口口④ |①---|
口①③口 |②---|
口口口口 |③---|
口口口口 |④---|
31
口口口口 |①---|
口①③口 |②---|
口②④口 |③---|
口口口口 |④---|
32
①口口① |①---|
②口口② |②---|
③口口③ |③---|
④口口④ |④---|
33
口①①口 |①---|
口②②口 |②---|
④③③④ |③---|
口口口口 |④---|
34
①①①① |①---|
口口口口 |----|
口口口口 |----|
口口口口 |----|
35
口口口口 |①---|
口①②口 |----|
口②①口 |②---|
口口口口 |----|
36
口口口口 |①---|
口口口口 |----|
口口口口 |----|
①①①① |----|
37
口①①口 |----|
口②②口 |----|
口口口口 |①---|
口口口口 |②---|
38
口口口口 |①---|
口口口口 |----|
口口口口 |----|
①口口① |----|
39
口④口口 |①---|
口口口口 |②---|
②口口③ |③---|
口口①口 |④---|
40
口口口口 |①---|
口①①口 |----|
口①①口 |----|
口口口口 |----|
41
口②口口 |①---|
口口③口 |②---|
口口①口 |③---|
口④口口 |④---|
42
口口口② |①---|
③③口口 |②---|
①①口④ |③---|
口口口口 |④---|
43
③③口口 |①---|
口口口② |②---|
口口口口 |③---|
①①口④ |④---|
44
④口口口 |①---|
口③口口 |②---|
②口口口 |③---|
口①口口 |④---|
45
口口口④ |①---|
口口③口 |②---|
口口口② |③---|
口口①口 |④---|
46
口④口口 |①---|
③口口口 |②---|
②口口口 |③---|
口①口口 |④---|
47
口口①口 |①---|
口口口② |②---|
口口口③ |③---|
口口④口 |④---|
48
口③③口 |①---|
②④④② |②---|
口①①口 |③---|
口口口口 |④---|
49
口③③口 |①---|
②④④② |②---|
口①①口 |③---|
口口口口 |④---|
50
③③口② |①---|
口口口口 |②---|
①①口④ |③---|
口口口口 |④---|
51
口口口口 |①---|
③③口② |②---|
口口口口 |③---|
①①口④ |④---|
52
④口口口 |①---|
口③口口 |②---|
②口口口 |③---|
口①口口 |④---|
53
口口口④ |①---|
口口③口 |②---|
口口口② |③---|
口口①口 |④---|
54
口④口口 |①---|
③口口口 |②---|
②口口口 |③---|
口①口口 |④---|
55
口口①口 |①---|
口口口② |②---|
口口口③ |③---|
口口④口 |④---|
56
口③③口 |①---|
②④④② |②---|
口①①口 |③---|
口口口口 |④---|
57
口③③口 |①---|
②④④② |②---|
口①①口 |③---|
口口口口 |④---|
58
④口口口 |①---|
③口口口 |②---|
②口口口 |③---|
①①口口 |④---|
59
口口①口 |①---|
口口②口 |②---|
口口③口 |③---|
口口④口 |④---|
60
口④口口 |①---|
口③口口 |②---|
口②口口 |③---|
口①口口 |④---|
61
口口口① |①---|
口口口② |②---|
口口口③ |③---|
口口口④ |④---|
62
口口口口 |①---|
①②③④ |②---|
①口口口 |③---|
口口口口 |④---|
63
口口口口 |①---|
口口口口 |②---|
④③②① |③---|
口口口① |④---|
64
①②③④ |①---|
①口口口 |②---|
口口口口 |③---|
口口口口 |④---|
65
口口口口 |①---|
口口口① |②---|
④③②① |③---|
口口口口 |④---|
66
口口口口 |①---|
口口口口 |----|
口口口口 |----|
①口口① |----|
67
①①①① |①---|
口②口口 |----|
口口②口 |②---|
口口口口 |----|
68
口口口口 |①---|
口口①口 |----|
口①口口 |----|
口口口口 |----|
69
口口口口 |----|
口口口口 |----|
口口口口 |----|
口口口口 |----|
70
口口口口 |①---|
①①①① |----|
口口口口 |----|
口口口口 |----|
71
①①①① |①---|
口口口口 |----|
口口口口 |②---|
②②②② |----|
72
口口口口 |①---|
口口口口 |----|
①①①① |----|
口口口口 |----|
73
口②口口 |①---|
口口③口 |②---|
口口①口 |③---|
口④口口 |④---|
74
口口口② |①---|
③③口口 |②---|
①①口④ |③---|
口口口口 |④---|
75
③③口口 |①---|
口口口② |②---|
口口口口 |③---|
①①口④ |④---|
76
④口口口 |①---|
口③口口 |②---|
②口口口 |③---|
口①口口 |④---|
77
口口口④ |①---|
口口③口 |②---|
口口口② |③---|
口口①口 |④---|
78
口④口口 |①---|
③口口口 |②---|
②口口口 |③---|
口①口口 |④---|
79
口口①口 |①---|
口口口② |②---|
口口口③ |③---|
口口④口 |④---|
80
口③③口 |①---|
②④④② |②---|
口①①口 |③---|
口口口口 |④---|
81
口③③口 |①---|
②④④② |②---|
口①①口 |③---|
口口口口 |④---|
82
③③口② |①---|
口口口口 |②---|
①①口④ |③---|
口口口口 |④---|
83
口口口口 |①---|
③③口② |②---|
口口口口 |③---|
①①口④ |④---|
84
④口口口 |①---|
口③口口 |②---|
②口口口 |③---|
口①口口 |④---|
85
口口口④ |①---|
口口③口 |②---|
口口口② |③---|
口口①口 |④---|
86
口④口口 |①---|
③口口口 |②---|
②口口口 |③---|
口①口口 |④---|
87
口口①口 |①---|
口口口② |②---|
口口口③ |③---|
口口④口 |④---|
88
口③③口 |①---|
②④④② |②---|
口①①口 |③---|
口口口口 |④---|
89
口③③口 |①---|
②④④② |②---|
口①①口 |③---|
口口口口 |④---|
90
④口口口 |①---|
③口口口 |②---|
②口口口 |③---|
①①口口 |④---|
91
口口①口 |①---|
口口②口 |②---|
口口③口 |③---|
口口④口 |④---|
92
口④口口 |①---|
口③口口 |②---|
口②口口 |③---|
口①口口 |④---|
93
口口口① |①---|
口口口② |②---|
口口口③ |③---|
口口口④ |④---|
94
口口口口 |①---|
口口口口 |②---|
口③口④ |③---|
①口②口 |④---|
95
①口②口 |①---|
口③口④ |②---|
口口口口 |③---|
口口口口 |④---|
96
口口口口 |①---|
口③②口 |②---|
口口口口 |③---|
口①④口 |④---|
97
④④④④ |①---|
③口口③ |②---|
②口口② |③---|
①口口① |④---|
98
口口口口 |①---|
口口口口 |----|
口口口口 |----|
口①①口 |----|
99
口口口口 |①---|
口口口口 |----|
口①①口 |----|
口口口口 |----|
100
口口口口 |①---|
口口口口 |----|
口口口口 |----|
口①①口 |----|
101
口口口口 |①---|
口口口口 |----|
口①①口 |----|
口口口口 |----|

不確定度: 0

最終更新:2014年05月19日 21:30