トリカゴノ鳳凰
L.E.D. Vs. 幽閉サテライト

ADVANCED

Level: 7
BPM: 185
Notes: 642

1
口口口口 |----|
口口口口 |----|
口口口口 |----|
口口口口 |----|
2
口口⑥口 |①-②-|
①③②口 |③---|
口口口口 |④-⑤-|
口⑤口④ |--⑥-|
3
④口口④ |--①-|
①②口口 |②---|
口口口口 |③---|
③口口③ |--④-|
4
口口口口 |--①-|
口③②① |②-③-|
④⑤⑥口 |--④-|
口口口口 |⑤-⑥-|
5
③④⑤③ |①-②-|
口⑤④口 |--③-|
口口口口 |--④-|
口①②口 |--⑤-|
6
口口⑥口 |①-②-|
口口口口 |③---|
①②③口 |④-⑤-|
口口⑤④ |--⑥-|
7
④口口④ |--①-|
①②口口 |②---|
口口口口 |③---|
口③③口 |--④-|
8
口口口口 |--①-|
口③②① |②-③-|
④⑤⑥口 |--④-|
口口口口 |⑤-⑥-|
9
口口⑧口 |①-②-|
①⑦②口 |③-④-|
⑤口口⑥ |⑤-⑥-|
口④口③ |⑦-⑧-|
10
①口口① |①---|
口口口③ |②---|
口口口口 |③---|
②口口④ |④---|
11
口①③口 |①---|
①口口③ |②---|
口口口口 |③---|
口④②口 |④---|
12
口口口口 |①---|
口口口③ |②---|
口①①口 |③---|
②口口④ |④---|
13
口口口口 |①---|
①⑥口③ |②---|
口口⑤口 |③-④-|
②④口口 |⑤-⑥-|
14
①口口① |①---|
口口口③ |②---|
口口口口 |③---|
②口口④ |④---|
15
①①①① |①---|
口③④口 |②---|
口④③口 |③---|
②口口口 |④---|
16
①口口① |①---|
③口口口 |②---|
口口口口 |③---|
④口口② |④---|
17
口口口口 |①---|
口①①口 |----|
口①①口 |----|
口口口口 |----|
18
①口②口 |--①-|
口③口④ |②-③-|
⑥口⑤口 |④-⑤-|
口⑦⑦口 |⑥-⑦-|
19
口①口口 |--①-|
口口②⑥ |②-③-|
口④口口 |--④-|
③口⑤③ |⑤-⑥-|
20
⑤②③⑤ |①---|
口口口口 |②-③-|
①④口① |--④-|
口口④口 |--⑤-|
21
口口口口 |①-②-|
①③口口 |③-④-|
口口②④ |----|
口口口口 |----|
22
口口口口 |----|
①口口② |①---|
口③③口 |②---|
②②①① |③---|
23
②口口③ |①---|
口①①口 |②-③-|
①口⑤① |--④-|
口④④口 |--⑤-|
24
②①①③ |①---|
①口口① |②-③-|
口口口口
口口口口

口⑤⑤口
口口口口
口口口口 |--④-|
口④口口 |--⑤-|
25
口口口口 |①-②-|
口口①口 |----|
口②口口
口口口口

③口口口
口口⑤口
口口口④ |--③-|
口口口口 |④-⑤-|
26
口口口口 |①---|
口口口口 |----|
口口口口 |----|
口①口口 |----|
27
口②口口 |--①-|
⑤口③⑦ |②-③-|
口④⑥口 |④-⑤-|
口口①口 |⑥-⑦-|
28
②⑤⑤③ |①---|
口口口口 |②-③-|
口④④口 |--④-|
口①①口 |--⑤-|
29
口口口口 |①-②-|
③③④④ |③-④-|
①口口② |----|
口①②口 |----|
30
口口口口 |----|
①口口② |①---|
口③③口 |②---|
②②①① |③---|
31
①①①① |①---|
口口④口 |----|
口③口口 |②---|
口②②口 |③-④-|
32
②②②② |①---|
口口口口 |----|
口口④口 |②---|
①③口① |③-④-|
33
口口口口 |①-②-|
①口⑤① |----|
口④口口 |--③-|
②口③② |④-⑤-|
34
口④⑤口 |①-②-|
③口口⑥ |③-④-|
②口口⑦ |⑤-⑥-|
口①⑧口 |⑦-⑧-|
35
口④⑤口 |①-②-|
③口口⑥ |③-④-|
②①口⑦ |⑤-⑥-|
口①⑧口 |⑦-⑧-|
36
口④⑤口 |①-②-|
③口口⑥ |③-④-|
②①口⑦ |⑤-⑥-|
口①⑧口 |⑦-⑧-|
37
口④⑤口 |①-②-|
③口口⑥ |③-④-|
②口口⑦ |⑤-⑥-|
口①⑧口 |⑦-⑧-|
38
⑦口口⑧ |①-②-|
口③④口 |③-④-|
口①②口 |⑤-⑥-|
⑤口口⑥ |⑦-⑧-|
39
口口口口 |①-②-|
③⑤⑥② |③-④-|
口⑦⑧口 |⑤-⑥-|
口①④口 |⑦-⑧-|
40
口④⑤口 |①-②-|
③口口⑥ |③-④-|
②口口⑦ |⑤-⑥-|
口①⑧口 |⑦-⑧-|
41
③口口② |①-②-|
口⑤⑥口 |③-④-|
口口④口 |⑤-⑥-|
⑦①口⑧ |⑦-⑧-|
42
口①①口 |①---|
口口口口 |②-③-|
②口口③ |④---|
口④④口 |----|
43
③口口③ |----|
①口②口 |①---|
口①口② |②---|
口口口口 |③---|
44
⑤口口⑤ |①---|
口②③口 |②-③-|
①口①口 |--④-|
口④④口 |⑤---|
45
口口口口 |①---|
口口口口 |----|
口口口口 |----|
①口口① |----|
46
口口口口 |----|
③口③口 |①---|
口②口② |②---|
①口①口 |③---|
47
③①③① |①---|
口口口口 |②---|
口⑤口口 |③---|
口②④② |④-⑤-|
48
口②口口 |①---|
③①①② |----|
口口口口 |----|
口口口口 |②-③-|
49
口口口口 |①---|
口口口口 |----|
口口①口 |----|
口①口口 |----|
50
口口口口 |①-②-|
①①②② |③-④-|
③③④④ |⑤---|
口⑤⑤口 |----|
51
口⑥口口 |--①-|
①口口② |②-③-|
口口口口 |④-⑤-|
④③⑦⑤ |⑥-⑦-|
52
⑥⑦④⑤ |①-②-|
①②③⑧ |③-④-|
⑧③②① |⑤-⑥-|
⑤④⑦⑥ |⑦-⑧-|
53
口口口口 |①---|
②①②口 |②-③-|
口③①③ |----|
口口口口 |----|
54
口口③口 |----|
口口口③ |①---|
①口口② |②---|
口①②口 |③---|
55
口①口③ |①---|
口口⑤口 |②---|
②①②③ |③---|
口④口口 |④-⑤-|
56
口①①口 |①---|
口口口口 |----|
口口口口
口口口口

②口③口
口口口②
口口口口 |----|
口口口口 |②-③-|
57
②口口② |①---|
口③③口 |----|
①口口① |--②-|
口口口口 |--③-|
58
口口口口 |①---|
口口口口 |----|
①①①① |----|
口口口口 |----|
59
口口口口 |①---|
口口口口 |②---|
①②③④ |③---|
口口口口 |④---|
60
口口口口 |①---|
①口口口 |②---|
口口口口 |③---|
①②③④ |④---|
61
口口口口 |①---|
①②③④ |②---|
口口口口 |③---|
①口口口 |④---|
62
口口口口 |①---|
口口口口 |②---|
口口①口 |③---|
④③②① |④---|
63
口口口口 |①---|
④③②① |②---|
口口①口 |③---|
口口口口 |④---|
64
口口口口 |①---|
口口口口 |②---|
①②③④ |③---|
口①口口 |④---|
65
①③③② |①---|
④①②④ |②---|
口口口口 |③---|
口口口口 |④---|
66
口口口口 |①---|
口口口口 |----|
口口口口 |----|
①①①① |----|
67
①①①① |①---|
口②口口 |----|
口口②口 |②---|
口口口口 |----|
68
口口口口 |①---|
口口①口 |----|
口①口口 |----|
口口口口 |----|
69
口口口口 |----|
口③口口 |----|
口口②口 |--①-|
口①口口 |②-③-|
70
①①①① |①---|
口口口口 |----|
口口口口 |----|
口口口口 |----|
71
③①①③ |①---|
口③③口 |----|
①②②① |②---|
口②②口 |③---|
72
口口口口 |①---|
①口口① |----|
①口口① |----|
口口口口 |----|
73
②口口① |--①-|
口④⑤口 |②-③-|
口口③口 |④-⑤-|
⑥口口⑦ |⑥-⑦-|
74
口①①口 |①---|
口口口口 |②-③-|
②口口③ |④---|
口④④口 |----|
75
③口口③ |----|
①口②口 |①---|
口①口② |②---|
口口口口 |③---|
76
⑤口口⑤ |①---|
口②③口 |②-③-|
①口①口 |--④-|
口④口口 |⑤---|
77
口口口口 |①---|
口口口口 |----|
口口口口 |----|
①口口① |----|
78
口口口口 |----|
③口③口 |①---|
口②口② |②---|
①口①口 |③---|
79
③①③① |①---|
口口口口 |②---|
口⑤口口 |③---|
口②④② |④-⑤-|
80
口②口口 |①---|
③①①② |----|
口口口口 |----|
口口口口 |②-③-|
81
口口口口 |①---|
口口口口 |----|
口口①口 |----|
口①口口 |----|
82
口口口口 |①-②-|
①①②② |③-④-|
③③④④ |⑤---|
口⑤⑤口 |----|
83
口⑥口口 |--①-|
①口口② |②-③-|
口口口口 |④-⑤-|
④③⑦⑤ |⑥-⑦-|
84
⑥⑦④⑤ |①-②-|
①②③⑧ |③-④-|
⑧③②① |⑤-⑥-|
⑤④⑦⑥ |⑦-⑧-|
85
口口口口 |①---|
②①②口 |②-③-|
口③①③ |----|
口口口口 |----|
86
口口③口 |----|
口口口③ |①---|
①口口② |②---|
口①②口 |③---|
87
口①口③ |①---|
口口⑤口 |②---|
②①②③ |③---|
口④口口 |④-⑤-|
88
口①①口 |①---|
口口口口 |----|
口口口口
口口口口

②口③口
口口口②
口口口口 |----|
口口口口 |②-③-|
89
②口口② |①---|
口③③口 |----|
①口口① |--②-|
口口口口 |--③-|
90
口口口口 |①---|
口口口口 |②---|
①①①① |③---|
口②③④ |④---|
91
口口口口 |①---|
①②③④ |②---|
口口口口 |③---|
①口口口 |④---|
92
口口口口 |①---|
口口口口 |②---|
①口口口 |③---|
①②③④ |④---|
93
①口口口 |①---|
口口口口 |②---|
①②③④ |③---|
口口口口 |④---|
94
口口口口 |①---|
④③②① |②---|
口口口口 |③---|
①口口口 |④---|
95
①口口口 |①---|
口口口口 |②---|
口口口口 |③---|
④③②① |④---|
96
口口口① |①---|
③口口④ |②---|
口①②口 |③---|
口口口口 |④---|
97
口口口① |①---|
口⑤⑥口 |②---|
口③④口 |③-④-|
①口口② |⑤-⑥-|
98
口②⑦口 |①-②-|
口口口③ |③-④-|
①④口① |⑤-⑥-|
口⑥口⑤ |--⑦-|
99
④口口④ |--①-|
①②口口 |②---|
口口口口 |③---|
③口口③ |--④-|
100
口口⑥口 |①-②-|
①③②口 |③---|
口口口口 |④-⑤-|
口⑤口④ |--⑥-|
101
④口口④ |--①-|
①②口口 |②---|
口口口口 |③---|
③口口③ |--④-|

不確定度: 0

最終更新:2014年05月19日 21:30