Thor's Hammer
ユニバーサル度胸兄弟

BASIC

Level: 4
BPM: 150
Notes: 312

1
口口口口 |----|
口口口口 |----|
口口口口 |----|
口口口口 |----|
2
口口口口 |----|
口口口口 |----|
口口口口 |----|
口口口口 |----|
3
口口口口 |①---|
①②③④ |②---|
口口口口 |③---|
口口口口 |④---|
4
①口口② |①---|
口口口口 |②---|
③口口④ |③---|
口口口口 |④---|
5
口口口口 |①---|
④③②① |②---|
口口口口 |③---|
口口口口 |④---|
6
②口口① |①---|
口口口口 |②---|
④口口③ |③---|
口口口口 |④---|
7
口口口口 |①---|
口口口口 |----|
口②②口 |②---|
口①①口 |----|
8
口②②口 |①---|
口①①口 |----|
口口口口 |②---|
口口口口 |----|
9
①口口② |①---|
③口口④ |②---|
口口口口 |③---|
口口口口 |④---|
10
口口口口 |①---|
口口口口 |②---|
①口口② |③---|
③口口④ |④---|
11
口④④口 |①---|
口③③口 |②---|
口②②口 |③---|
口①①口 |④---|
12
口口口口 |①---|
①口口① |----|
①口口① |----|
口口口口
13
口口口口 |----|
口口口口 |----|
口口口口 |----|
口口口口
14
口口口口 |①---|
①②③口 |②---|
口口口口 |③---|
口口口口
15
口口口口 |①---|
口口口① |②---|
口口③② |③---|
口口口口
16
口口口口 |①---|
③口口口 |②---|
②①口口 |③---|
口口口口
17
口口口口 |①---|
口①口口 |----|
口口口口 |----|
口口口口
18
①①②② |①---|
口口口口 |--②-|
口口口口 |----|
口口口口
19
口口口口 |①---|
①口口② |--②-|
①口口② |----|
口口口口
20
口①①口 |①---|
口口口口 |--②-|
口口口口 |----|
口②②口
21
口口口口 |①---|
口①①口 |②-③-|
口口口口 |----|
②口口③
22
口②②口 |①---|
口口口口 |--②-|
口口口① |----|
口口口口
23
口口口口 |①---|
②口口口 |--②-|
②口口口 |----|
口①①口
24
口口②口 |①---|
口口②① |--②-|
口口口① |----|
口口口口
25
口口口口 |①---|
口①口口 |----|
口①口口 |----|
口口口口
26
①口口② |①---|
口口口口 |--②-|
口口口口 |----|
口口口口
27
口口口口 |①---|
①口口② |--②-|
口口口口 |----|
口口口口
28
口口口口 |①---|
口口口口 |--②-|
①口口② |----|
口口口口
29
口口口口 |①---|
口口口口 |----|
口口口口 |----|
口①①口
30
①口口② |①---|
口口口口 |--②-|
口口口口 |----|
口口口口
31
口口口口 |①---|
①口口② |--②-|
口口口口 |----|
口口口口
32
口口口口 |①---|
口口口口 |--②-|
口②②口 |----|
口①①口
33
口口口口 |①---|
口①①口 |--②-|
②口口② |----|
口口口口
34
①口口① |①---|
口口口口 |----|
口口口口 |----|
口口口口
35
口口口口 |①---|
口口口口 |--②-|
②②②② |----|
①①①①
36
口口口口 |①---|
①①①① |----|
口口口口 |----|
口口口口
37
口口口口 |①---|
口口口口 |--②-|
②②②② |----|
①①①①
38
口口口口 |①---|
①①①① |----|
口口口口 |----|
口口口口
39
①①①① |①---|
②②②② |--②-|
口口口口 |----|
口口口口
40
②口口口 |①---|
②口口口 |--②-|
①①①① |----|
口口口口
41
口口口① |①---|
口口口① |--②-|
口口口口 |----|
口②②口
42
口口口口 |①---|
②②②② |--②-|
①①①① |----|
口口口口
43
①①①① |①---|
口口口口 |----|
口口口口 |----|
口口口口
44
口口口口 |①---|
口口口口 |--②-|
口②②口 |----|
①①①①
45
①①①① |①---|
②②②② |--②-|
口口口口 |----|
口口口口
46
口口口口 |①---|
口口口口 |----|
①①①① |----|
口口口口
47
口口口口 |①---|
①口口② |--②-|
①口口② |----|
口口口口
48
口①①口 |①---|
口口口口 |----|
口口口口 |----|
口口口口
49
①口口② |①---|
口口口口 |--②-|
口口口口 |----|
口口口口
50
口口口口 |①---|
①口口② |--②-|
口口口口 |----|
口口口口
51
口口口口 |①---|
口口口口 |--②-|
①口口② |----|
口口口口
52
口口口口 |①---|
口口口口 |--②-|
口口口口 |----|
①口口②
53
口口口口 |①---|
口口口口 |--②-|
口①②口 |----|
口口口口
54
口口口口 |①---|
口①②口 |--②-|
口口口口 |----|
口口口口
55
口口口口 |①---|
口口口口 |--②-|
②口口② |----|
①口口①
56
口口口口 |①---|
口口口口 |--②-|
口②②口 |----|
口①①口
57
口②②口 |①---|
口①①口 |--②-|
口口口口 |----|
口口口口
58
口口口口 |①---|
①②②① |--②-|
①②②① |----|
口口口口
59
口口口口 |①---|
①②②① |--②-|
①②②① |----|
口口口口
60
口口口口 |①---|
①口口① |--②-|
①口口① |----|
口②②口
61
口①①口 |①---|
口口口口 |----|
口口口口 |----|
口口口口
62
口口口口 |①---|
口④②③ |②-③-|
口口口口 |--④-|
口①口口
63
口②②口 |①---|
①口口口 |--②-|
口口口口 |----|
口口口口
64
口口口口 |①---|
③②④口 |②-③-|
口口口口 |--④-|
口口①口
65
口口口口 |①---|
口口口① |--②-|
口口口口 |----|
口②②口
66
口①①口 |①---|
口④②③ |②-③-|
口口口口 |--④-|
口口口口
67
口口口口 |①---|
①口口口 |--②-|
口口口口 |----|
②口口②
68
口口口口 |①---|
口口口口 |----|
①①①① |----|
口口口口
69
口口口口 |①---|
①①①① |----|
口口口口 |----|
口口口口
70
①①①① |①---|
口口口口 |②-③-|
③口口② |--④-|
口④口口
71
口口口口 |①---|
口②③口 |②-③-|
口口④口 |--④-|
口口①口
72
口口④口 |①---|
③口口② |②-③-|
口①口口 |--④-|
口口口口
73
口①口口 |①---|
口②③口 |②-③-|
口口④口 |--④-|
口口口口
74
口口口口 |①---|
③口口② |②-③-|
③①④口 |--④-|
口口口口
75
口口口口 |①---|
③口④② |②-③-|
③①口口 |--④-|
口口口口
76
③口口口 |①---|
③①口② |②-③-|
口口口口 |--④-|
口口口④
77
口③口② |①---|
口③口口 |②-③-|
①口④口 |--④-|
①口④口
78
口口口⑤ |--①-|
②口①口 |②-③-|
口④口③ |④-⑤-|
口口口口
79
口①口口 |①---|
口口口口 |--②-|
口口口口 |----|
口②②口
80
口口口口 |①---|
口①①口 |----|
口口口口 |----|
口口口口

不確定度: 0

最終更新:2014年05月19日 21:29