Thor's Hammer
ユニバーサル度胸兄弟

ADVANCED

Level: 8
BPM: 150
Notes: 517

1
口口口口 |----|
口口口口 |----|
口口口口 |----|
口口口口 |----|
2
口口口口 |----|
口口口口 |----|
口口口口 |----|
口口口口 |----|
3
口③②口 |①---|
③口口② |②---|
①口口④ |③---|
口①④口 |④---|
4
④口口④ |①---|
口③③口 |②---|
口②②口 |③---|
①口口① |④---|
5
口③②口 |①---|
③口口② |②---|
①口口④ |③---|
口①④口 |④---|
6
④口口④ |①---|
口③③口 |②---|
口②②口 |③---|
①口口① |④---|
7
口口口口 |①---|
④④②② |②---|
口口口口 |③---|
③③①① |④---|
8
④④②② |①---|
口口口口 |②---|
③③①① |③---|
口口口口 |④---|
9
口⑦⑧口 |①-②-|
①口口② |③-④-|
口③④口 |⑤-⑥-|
⑤口口⑥ |⑦-⑧-|
10
口口口口 |①-②-|
①②④③ |③-④-|
⑤⑥⑧⑦ |⑤-⑥-|
口口口口 |⑦-⑧-|
11
①③④② |①②③④|
⑤⑦⑧⑥ |⑤⑥⑦⑧|
⑨⑪⑫⑩ |⑨⑩⑪⑫|
⑬⑮⑯⑭ |⑬⑭⑮⑯|
12
①口口① |①-②-|
口②②口 |----|
口③③口 |③---|
口口口口
13
口①①口 |--①-|
口口口口 |----|
口口口口 |②---|
口②②口
14
口口口口 |①-②-|
①②⑥⑤ |③-④-|
口口③④ |⑤-⑥-|
口口口口
15
口口口口 |①-②-|
③④口口 |③-④-|
②①⑤⑥ |⑤-⑥-|
口口口口
16
口③②口 |①-②-|
口③②① |--③-|
口口口口 |----|
口口口口
17
口口口口 |----|
④口口③ |①-②-|
②口口① |③-④-|
口口口口
18
⑤口口③ |①---|
口口口口 |②-③-|
④口口② |④-⑤-|
口①①口
19
口口口口 |①-②-|
口②①口 |③-④-|
⑥⑤④③ |⑤-⑥-|
口口口口
20
口口口口 |①---|
⑤口口③ |②-③-|
口口口口 |④-⑤-|
④①①②
21
口④口② |①---|
⑤口③口 |②-③-|
口①①口 |④-⑤-|
口口口口
22
⑤口口③ |①---|
口口口口 |②-③-|
④口口② |④-⑤-|
口①①口
23
口口口口 |①-②-|
口②①口 |③-④-|
⑥⑤④③ |⑤-⑥-|
口口口口
24
口口②口 |①-②-|
口③③② |--③-|
口④口口 |④---|
④①①口
25
口口口口 |①---|
口口口口 |----|
口口口口 |----|
口①①口
26
口口口① |①-②-|
口口④② |③-④-|
口口⑤③ |⑤-⑥-|
口口⑥口
27
①口口口 |①-②-|
②④口口 |③-④-|
③⑤口口 |⑤-⑥-|
口⑥口口
28
口③②口 |①-②-|
口⑥⑤口 |③-④-|
④口口④ |⑤-⑥-|
①口口①
29
①口口① |①---|
口口口口 |----|
口口口口 |----|
口口口口
30
④口口① |①-②-|
⑤口口② |③-④-|
⑥口口③ |⑤-⑥-|
口口口口
31
口口口② |①---|
口①①③ |--②-|
口口口④ |③-④-|
口口口口
32
口②口口 |①-②-|
②③③口 |--③-|
口口④口 |④---|
口①①④
33
①口口① |①-②-|
口③③口 |--③-|
口②④口 |④---|
②口口④
34
口口口口 |①---|
①口口① |----|
①口口① |----|
口口口口
35
口口口口 |①-②-|
⑥⑥③③ |③-④-|
⑤⑤②② |⑤-⑥-|
④④①①
36
①①③② |①-②-|
口口口口 |③---|
口口口口 |----|
口口口口
37
④④口口 |①-②-|
⑤⑤③③ |③-④-|
⑥⑥②② |⑤-⑥-|
口口①①
38
口口②③ |①-②-|
口口口口 |③---|
口口口口 |----|
①①口口
39
口口口口 |①-②-|
⑥⑥③③ |③-④-|
⑤⑤②② |⑤-⑥-|
④④①①
40
①①口口 |①---|
口口口口 |--②-|
口口②② |----|
口口口口
41
口口②② |①---|
①①口口 |--②-|
口口口口 |----|
口口口口
42
④口口口 |①-②-|
⑤口口③ |③-④-|
⑥口口② |⑤-⑥-|
口口口①
43
口②①口 |①-②-|
口④③口 |③-④-|
口⑥⑤口 |⑤-⑥-|
口口口口
44
③口口② |①---|
口口口④ |--②-|
口口口口 |③-④-|
①口口①
45
口口口口 |①-②-|
①口口口 |③-④-|
③口⑥② |⑤-⑥-|
⑤口口④
46
口口②口 |①-②-|
③①口③ |--③-|
口口口口 |④-⑤-|
口⑤④口
47
口口口④ |①-②-|
口②①口 |③-④-|
口③口④ |----|
口口口口
48
②②口④ |①-②-|
⑤口③④ |③---|
⑤口③口 |④-⑤-|
①①口口
49
口④口口 |①-②-|
口②③口 |③-④-|
口④口① |----|
口口口①
50
②口口口 |①---|
口口口① |--②-|
②口口口 |----|
口口口①
51
口口①口 |①---|
口②口口 |--②-|
口口①口 |----|
口②口口
52
口口口口 |①---|
②口口① |--②-|
口口口口 |----|
②口口①
53
口②口① |①---|
口口口口 |--②-|
口②口① |----|
口口口口
54
②口口口 |①---|
口口①口 |--②-|
②口口口 |----|
口口①口
55
口口口口 |①---|
口②口① |--②-|
口口口口 |----|
口②口①
56
口④⑤口 |①-②-|
⑥口口③ |③-④-|
②口口口 |⑤-⑥-|
口口①口
57
口⑥口口 |①-②-|
口口口⑤ |③-④-|
④口口① |⑤-⑥-|
口②③口
58
②口口口 |①-②-|
⑤③①口 |③-④-|
口⑥①④ |⑤-⑥-|
口口口④
59
⑤口口① |①-②-|
口⑥④① |③-④-|
②口④口 |⑤-⑥-|
口③口口
60
口口口口 |①---|
口口口口 |--②-|
②口口① |----|
②口口①
61
①①①① |①---|
口口口口 |----|
口口口口 |----|
口口口口
62
⑤④口口 |①---|
口口②③ |②-③-|
口口口口 |④-⑤-|
口①①口
63
口口口口 |①-②-|
⑤⑥口口 |③-④-|
④③①② |⑤-⑥-|
口口口口
64
③②口① |①---|
口口口① |②-③-|
口口④⑤ |④-⑤-|
口口口口
65
⑤④口口 |①---|
口口②③ |②-③-|
①口口口 |④-⑤-|
①口口口
66
口④③口 |①---|
口②口口 |②-③-|
口口口口 |--④-|
口①①口
67
口口口口 |①---|
口口①口 |②-③-|
②③④⑤ |④-⑤-|
口口口口
68
①②③④ |①-②-|
⑤⑥口口 |③-④-|
口口口口 |⑤-⑥-|
口口口口
69
口口口口 |①-②-|
口口①② |③-④-|
③④⑤⑥ |⑤-⑥-|
口口口口
70
口②②口 |①---|
⑥③④⑤ |②-③④|
口口口⑦ |⑤-⑥⑦|
口①①口
71
口口口⑧ |①②③-|
⑨⑩口口 |④⑤⑥⑦|
③②①口 |⑧-⑨⑩|
⑦⑥⑤④
72
③口口⑨ |①②③-|
口口①② |④-⑤⑥|
⑧④④口 |⑦-⑧⑨|
口⑦⑥⑤
73
③②①口 |①②③-|
④⑤⑥⑦ |④⑤⑥⑦|
口口⑩⑨ |⑧-⑨⑩|
⑧口口口
74
口④④口 |①②③-|
⑧⑤⑥⑦ |④-⑤⑥|
②①口口 |⑦-⑧⑨|
⑨口口③
75
口④④口 |①②③-|
口口口⑨ |④-⑤⑥|
⑧⑤⑥⑦ |⑦-⑧⑨|
口①②③
76
口④④口 |①②③-|
③②①口 |④-⑤⑥|
口⑤⑥⑦ |⑦-⑧-|
口⑧⑧口
77
口④④口 |①②③-|
③②①口 |④-⑤⑥|
口⑤⑥⑦ |⑦-⑧-|
口⑧⑧口
78
①口口① |--①-|
②⑤⑤② |②-③-|
④口口④ |④-⑤-|
③口口③
79
口①①口 |①---|
②口口② |--②-|
口②②口 |----|
口口口口
80
口口口口 |①---|
口①①口 |----|
①口口① |----|
口口口口

不確定度: 0

最終更新:2014年05月19日 21:28