Snowfield Express
TIME CAPSULE Lab.

EXTREME

Level: 9
BPM: 188
Notes: 702

1
口口口口 |----|
口口口口 |----|
口口口口 |----|
口口口口 |----|
2
口口口口 |----|
口口口口 |----|
口口口口 |----|
口口口口 |----|
3
③口口① |①---|
口口口口 |--②-|
口②口口 |----|
口口口口 |--③-|
4
口④⑤口 |①-②-|
口口口③ |③-④-|
②口口口 |⑤---|
口口①口 |----|
5
口口口② |①---|
口口口口 |--②-|
口口③口 |----|
口①口口 |③---|
6
口口口口 |--①-|
口口口① |②-③-|
口⑥⑦口 |④-⑤-|
②③④⑤ |⑥-⑦-|
7
①口口口 |①---|
口口口③ |--②-|
口口口② |----|
口口口口 |--③-|
8
口口口⑥ |①-②-|
口⑤口口 |③-④-|
口口口口 |⑤-⑥-|
①②③④ |----|
9
口口口口 |①---|
口口②口 |--②-|
口口口口 |----|
①口口口 |----|
10
③②①口 |--①-|
⑥⑤④口 |②-③-|
口口口口 |④-⑤-|
口口口口 |⑥---|
11
口口口口 |①-②-|
口口⑦④ |③-④-|
⑦⑦③⑥ |--⑤-|
①①②⑤ |⑥-⑦-|
12
口口④⑦ |--①-|
口口⑥③ |②-③-|
口口②⑤ |④-⑤-|
口口①口 |⑥-⑦-|
13
⑦⑦口口 |①-②-|
①①⑦④ |③-④-|
口口③⑥ |--⑤-|
口口②⑤ |⑥-⑦-|
14
口口④⑦ |--①-|
口口⑥③ |②-③-|
口口②⑤ |④-⑤-|
口口①口 |⑥-⑦-|
15
口口口口 |①-②-|
口口⑦④ |③-④-|
⑦⑦③⑥ |--⑤-|
①①②⑤ |⑥-⑦-|
16
口口④⑦ |--①-|
口口⑥③ |②-③-|
口口②⑤ |④-⑤-|
口口①口 |⑥-⑦-|
17
⑦⑦口口 |①-②-|
①①⑦④ |③-④-|
口口③⑥ |--⑤-|
口口②⑤ |⑥-⑦-|
18
口口④⑦ |--①-|
口口⑥③ |②-③-|
口口②⑤ |④-⑤-|
口口①口 |⑥-⑦-|
19
口口口⑥ |--①-|
①口口⑤ |--②③|
口口口口 |④-⑤-|
口④③② |--⑥-|
20
④口口口 |--①②|
⑦口口口 |③-④-|
①②③⑥ |--⑤-|
⑤口口口 |⑥-⑦-|
21
口口①口 |①---|
口②口① |--②-|
②口口③ |----|
口口③口 |③---|
22
③①口③ |--①-|
①口口口 |----|
口口口口 |②---|
②口口② |③---|
23
⑦⑦口口 |--①-|
口口⑥① |--②③|
口⑤口口 |④-⑤-|
②③④口 |⑥-⑦-|
24
口口口① |--①-|
②⑥口口 |②-③-|
口口⑤口 |--④-|
④口口③ |⑤-⑥-|
25
口口③① |①---|
口口口口 |--②-|
④⑤⑥口 |③-④⑤|
⑦②口口 |⑥-⑦-|
26
口②口口 |--①-|
口口口③ |②-③-|
④口口口 |--④-|
口④口① |----|
27
①口口口 |--①-|
口口口口 |--②③|
口④③② |④-⑤-|
⑥口口⑤ |--⑥-|
28
⑤口口① |①-②③|
②③④口 |④-⑤-|
口口口⑥ |--⑥-|
口⑦口口 |--⑦-|
29
口③口口 |①---|
③口②口 |②-③-|
口④①⑤ |--④-|
口口⑤① |⑤---|
30
②口口口 |----|
口口口③ |--①-|
④口口口 |②-③-|
口⑤口① |④-⑤-|
31
口口口① |----|
口⑥④口 |①-②-|
口⑤③口 |③-④-|
口口口② |⑤-⑥-|
32
②口④口 |①-②-|
口口口口 |③-④-|
③口口⑥ |----|
①⑤口口 |⑤-⑥-|
33
口①口⑤ |①-②-|
口口②口 |③-④-|
口⑥口口 |--⑤-|
③口口④ |⑥---|
34
口口口口 |----|
口口口口 |----|
口口口口 |----|
口口口口 |----|
35
④口口口 |--①-|
口口口③ |②-③-|
②口⑤口 |④-⑤-|
口⑥①口 |--⑥-|
36
口口口③ |①-②-|
②口口⑦ |③-④-|
⑥④口① |--⑤-|
口口口⑤ |⑥-⑦-|
37
④⑦⑦④ |①-②-|
⑤③口口 |③-④-|
口口⑥② |⑤-⑥-|
①口①口 |--⑦-|
38
⑤口口口 |----|
口⑤②④ |--①-|
①③④② |②-③-|
③①口口 |④-⑤-|
39
口①①④ |①-②-|
③口③口 |--③-|
口口④③ |--④-|
⑤⑤口② |⑤---|
40
口⑦④口 |--①-|
⑤②⑦④ |②-③-|
③③⑥口 |④-⑤-|
⑤口①⑥ |⑥-⑦-|
41
②口口④ |①-②-|
口③口④ |--③-|
③⑤口③ |--④-|
⑤①①口 |⑤---|
42
口③口口 |--①-|
①⑤⑤口 |②-③-|
口口②口 |④---|
口④④口 |⑤---|
43
①③口① |①---|
口口口③ |--②-|
口口口口 |----|
②口②口 |③---|
44
口口口口 |--①-|
口口①口 |----|
①②③口 |②---|
③口口② |③---|
45
②⑧⑨③ |①---|
口④⑤口 |②-③-|
②⑥⑦③ |--④⑤|
口①①口 |⑥⑦⑧⑨|
46
⑥口口口 |--①-|
口⑥③⑤ |--②-|
②④⑤③ |③-④-|
④②口① |⑤-⑥-|
47
口①①④ |①-②-|
③口③口 |--③-|
口口④③ |--④-|
⑤⑤口② |⑤---|
48
口⑦④口 |--①-|
⑤②⑦④ |②-③-|
③③⑥口 |④-⑤-|
⑤口①⑥ |⑥-⑦-|
49
②口口④ |①-②-|
口③口④ |--③-|
③⑤口③ |--④-|
⑤①①口 |⑤---|
50
口③口口 |--①-|
①⑤⑤口 |②-③-|
口口②口 |④---|
口④④口 |⑤---|
51
①②③① |①---|
②口口③ |--②-|
口口口口 |----|
口口口口 |③---|
52
⑤口口⑥ |--①-|
⑨③④⑩ |②---|
⑦口口⑧ |③④⑤⑥|
口①②口 |⑦⑧⑨⑩|
53
口①②口 |①---|
口③④口 |--②-|
口⑤⑥口 |--③④|
口⑦⑧口 |⑤⑥⑦⑧|
54
①口③口 |①-②-|
口④④⑤ |③---|
⑤口口② |④---|
口口口口 |⑤---|
55
③①⑦④ |①-②-|
①⑤⑥⑦ |③-④-|
⑦③④② |⑤-⑥-|
⑤⑦②⑥ |--⑦-|
56
②①口② |--①-|
①口口口 |--②-|
口②②①
口口①口

口口⑧口
口⑤口⑥
⑦口口⑩ |③④⑤⑥|
③⑨口④ |⑦⑧⑨⑩|
57
口①④口 |①---|
①口口④ |--②-|
口③口口 |--③-|
⑤口②② |④-⑤-|
58
①②口口 |----|
②口③口 |--①-|
口③口④ |--②-|
口口④口 |③-④-|
59
口口口口 |①---|
口②口口 |--②-|
口口②口
口口口①

④口口③
口口口口
口口口口 |--③-|
③口口④ |--④-|
60
口口口口 |----|
④口①口 |--①②|
④口②口 |③---|
口口③口 |④---|
61
④④①① |①---|
口口口口 |--②-|
口口口③ |--③-|
②②⑤口 |④-⑤-|
62
口②③口 |----|
口口口口 |--①-|
口①①口 |----|
口口口口 |②-③-|
63
③口口② |①-②-|
①⑤⑤口 |③-④-|
口④④⑥ |----|
⑤①①④ |⑤-⑥-|
64
③②②③ |①-②-|
③口口口 |----|
①口口④ |③---|
④②②④ |④---|
65
②①①② |①---|
③①①口 |--②-|
⑤③口④ |--③-|
口⑤④口 |④-⑤-|
66
口④③② |----|
口④③② |--①-|
口口口口 |--②-|
①口口① |③-④-|
67
①④口④ |①---|
①口口口 |--②-|
②口②口 |--③-|
⑤③⑤③ |④-⑤-|
68
①口①口 |----|
口④③② |--①-|
口④③② |--②-|
口口口口 |③-④-|
69
④④口口 |①---|
①口口③ |--②-|
①口口口 |--③-|
②②⑤口 |④-⑤-|
70
口③②口 |----|
口口口口 |--①-|
口①①口 |----|
口口口口 |②-③-|
71
②口口③ |①-②-|
口⑤⑤① |③-④-|
⑥④④口 |----|
④①①⑤ |⑤-⑥-|
72
③②②③ |①-②-|
口⑤⑤③ |----|
④⑤⑤① |③---|
④②②④ |④-⑤-|
73
⑥口口口 |----|
①口口⑤ |①---|
④口口口 |②③④-|
口②③口 |⑤-⑥-|
74
口⑧口② |①---|
口③④口 |②-③④|
⑧⑤⑥① |⑤⑥⑦-|
口⑦口口 |⑧---|
75
③口③口 |①---|
①口口口 |--②-|
口④口④ |--③-|
口口口② |--④-|
76
口口口③ |①-②-|
②④口⑤ |③-④-|
口口口口 |⑤---|
口口①口 |----|
77
②口口口 |①---|
口口口③ |--②-|
口口口口 |----|
口口①口 |③---|
78
口⑦⑧⑦ |①-②-|
⑤⑥⑤口 |③-④-|
口③④③ |⑤-⑥-|
①②①口 |⑦-⑧-|
79
①口口口 |①---|
口口口口 |--②-|
口口口口
口口口②

③口口口
口口口口
③口口口 |----|
口口口口 |--③-|
80
口口④口 |①-②-|
①②⑤口 |③-④-|
口③④⑥ |⑤-⑥-|
口②口口 |----|
81
口口口② |①---|
口口口口 |--②-|
口口口口 |----|
①口口口 |----|
82
口④口⑥ |--①-|
③①⑤① |②-③-|
②④②⑥ |④-⑤-|
口口口口 |⑥---|
83
④④口口 |①-②-|
⑤⑤⑦④ |③-④-|
⑦⑦③⑥ |--⑤-|
①①②⑤ |⑥-⑦-|
84
口口④⑦ |--①-|
口口⑥③ |②-③-|
口口②⑤ |④-⑤-|
口口①口 |⑥-⑦-|
85
④④口口 |①-②-|
口口口④ |③-④-|
①①③口
口口②口

口口口口
⑤⑤⑦口
⑦⑦口⑥ |--⑤-|
口口口⑤ |⑥-⑦-|
86
口口④⑦ |--①-|
口口⑥③ |②-③-|
口口②⑤ |④-⑤-|
口口①口 |⑥-⑦-|
87
④④口口 |①-②-|
⑤⑤⑦④ |③-④-|
⑦⑦③⑥ |--⑤-|
①①②⑤ |⑥-⑦-|
88
口口④⑦ |--①-|
口口⑥③ |②-③-|
口口②⑤ |④-⑤-|
口口①口 |⑥-⑦-|
89
口口口口 |①-②-|
口④口④ |③-④-|
④口③口
①①②口

⑤口口口
⑤口⑦口
口⑦口⑥ |--⑤-|
⑦口口⑤ |⑥-⑦-|
90
口①④⑦ |--①-|
⑤②⑥③ |②-③-|
③⑥②⑤ |④-⑤-|
⑦④①口 |⑥-⑦-|


不確定度: 0

最終更新:2014年02月17日 17:53