女子力←パラダイス
SUPER☆GiRLS

BASIC

Level: 3
BPM: 140
Notes: 284

全程BPM在140附近飄忽不定
1
口口口口 |----|
口口口口 |----|
口口口口 |----|
口口口口 |----|
2
口口口口 |①---|
口口口口 |----|
口①①口 |----|
口口口口 |----|
3
口口口口 |①---|
②口口② |----|
①口口① |②---|
口口口口 |----|
4
口①①口 |①---|
口②②口 |②---|
口③③口 |③---|
口口口口 |----|
5
口①①口 |①---|
口②②口 |②---|
口③③口 |③---|
口口口口 |----|
6
口①①口 |①---|
口②②口 |②---|
口③③口 |③---|
口口口口 |----|
7
③口口口 |①---|
口口口口 |----|
②口口口 |②---|
口口口① |③---|
8
口①①口 |①---|
口②②口 |②---|
口③③口 |③---|
口口口口 |----|
9
口①①口 |①---|
口②②口 |②---|
口③③口 |③---|
口口口口 |----|
10
口①①口 |①---|
口②②口 |②---|
口③③口 |③---|
口口口口 |----|
11
口口口口 |①---|
①口口① |----|
②口口② |②---|
口口口口 |----|
12
口口口口 |①---|
口①②口 |----|
口口口口 |②---|
口口口口 |----|
13
①口口① |①---|
②口口② |②---|
③口口③ |③---|
口口口口 |----|
14
口口口口 |①---|
口①②口 |----|
口口口口 |②---|
口口口口 |----|
15
③口口③ |①---|
②口口② |②---|
①口口① |③---|
口口口口 |----|
16
口口口口 |①---|
口①②口 |----|
口口口口 |②---|
口口口口 |----|
17
①口口① |①---|
②口口② |②---|
③口口③ |③---|
口口口口 |----|
18
口口口口 |①---|
口①②口 |----|
口②①口 |②---|
口口口口 |----|
19
口口口口 |①---|
口①②口 |----|
口②①口 |②---|
口口口口 |----|
20
口口口口 |①---|
口①②口 |----|
口口口口 |②---|
口口口口 |----|
21
①口口① |①---|
②口口② |②---|
③口口③ |③---|
口口口口 |----|
22
口口口口 |①---|
口①②口 |----|
口口口口 |②---|
口口口口 |----|
23
③口口③ |①---|
②口口② |②---|
①口口① |③---|
口口口口 |----|
24
口口口口 |①---|
口①②口 |----|
口口口口 |②---|
口口口口 |----|
25
①口口① |①---|
②口口② |②---|
③口口③ |③---|
口口口口 |----|
26
口口口口 |①---|
口①②口 |----|
口②①口 |②---|
口口口口 |----|
27
口④④口 |①---|
口③③口 |②---|
口②②口 |③---|
口①①口 |④---|
28
口口口口 |①---|
②口口口 |----|
①口口口 |②---|
口口口口 |----|
29
口口口口 |①---|
口口②口 |----|
口口①口 |②---|
口口口口 |----|
30
口口口口 |①---|
口②口口 |----|
口①口口 |②---|
口口口口 |----|
31
口口口口 |①---|
口口口② |----|
口口口① |②---|
口口口口 |----|
32
口口口口 |①---|
口口口口 |----|
口①②口 |②---|
口口口口 |----|
33
口口口口 |①---|
口①②口 |②---|
口③④口 |③---|
口口口口 |④---|
34
口口口口 |①---|
口口口口 |----|
口口口口 |②---|
②①①② |----|
35
口④④口 |①---|
口③③口 |②---|
口②②口 |③---|
口①①口 |④---|
36
①口口① |①---|
口口口口 |----|
口口口口 |----|
口口口口 |----|
37
④②②④ |①---|
口口口口 |②---|
③①①③ |③---|
口口口口 |④---|
38
④②②④ |①---|
口口口口 |②---|
③①①③ |③---|
口口口口 |④---|
39
口口口口 |①---|
口④④口 |②---|
③②②③ |③---|
③①①③ |--④-|
40
②①①② |--①-|
口口口口 |--②-|
③口口③ |--③-|
口口口口 |----|
41
口口口口 |①---|
口②口口 |----|
口①口口 |②---|
口口口口 |----|
42
口口口口 |①---|
口口②口 |----|
口口①口 |②---|
口口口口 |----|
43
口口口口 |①---|
①③③① |----|
口口口口 |--②-|
口②②口 |--③-|
44
口口口口 |----|
口口口口 |----|
口口口口 |----|
口口口口 |----|
45
④②②④ |①---|
口口口口 |②---|
③①①③ |③---|
口口口口 |④---|
46
④②②④ |①---|
口口口口 |②---|
③①①③ |③---|
口口口口 |④---|
47
口口口口 |①---|
口④④口 |②---|
③②②③ |③---|
③①①③ |--④-|
48
②①①② |--①-|
口口口口 |--②-|
③口口③ |--③-|
口口口口 |----|
49
口口口口 |①---|
口②口口 |----|
口①口口 |②---|
口口口口 |----|
50
口口口口 |①---|
口口②口 |----|
口口①口 |②---|
口口口口 |----|
51
口口口口 |①---|
②口口口 |----|
①口口口 |②---|
口口口口 |----|
52
口口口口 |①---|
口口口② |----|
口口口① |②---|
口口口口 |----|
53
口①①口 |①---|
口口口口 |----|
口口口口
口口口口

口②②口
口③③口
口口口口 |--②-|
口口口口 |--③-|
54
口口口口 |--①-|
口口口口 |----|
口①①口 |----|
口口口口 |----|
55
口口口口 |----|
口口口口 |----|
口口口口 |----|
口口口口 |----|
56
口①①口 |①---|
口②②口 |②---|
口③③口 |③---|
口口口口 |----|
57
口①①口 |①---|
口②②口 |②---|
口③③口 |③---|
口口口口 |----|
58
口①①口 |①---|
口②②口 |②---|
口③③口 |③---|
口口口口 |----|
59
③口口口 |①---|
口口口口 |----|
②口口口 |②---|
口口口① |③---|
60
口①①口 |①---|
口②②口 |②---|
口③③口 |③---|
口口口口 |----|
61
口①①口 |①---|
口②②口 |②---|
口③③口 |③---|
口口口口 |----|
62
口①①口 |①---|
口②②口 |②---|
口③③口 |③---|
口口口口 |----|
63
口口口口 |①---|
①口口① |----|
②口口② |②---|
口口口口 |----|
64
口口口口 |①---|
③①①③ |----|
②口口② |----|
口口口口 |②-③-|


不確定度: 0

タグ:

+ タグ編集
  • タグ:

このサイトはreCAPTCHAによって保護されており、Googleの プライバシーポリシー利用規約 が適用されます。

最終更新:2013年04月07日 23:42