sister's noise
fripSide

BASIC

Level: 3
BPM: 144
Notes: 181

1
口口口口 |----|
口口口口 |----|
口口口口 |----|
口口口口 |----|
2
口①①口 |①---|
口口口口 |----|
口口口口 |----|
口口口口 |----|
3
口口口口 |①---|
口①①口 |----|
口口口口 |----|
口口口口 |----|
4
口口口口 |①---|
口口口口 |----|
口①①口 |----|
口口口口 |----|
5
口口口口 |①---|
口口口口 |----|
口口口口 |----|
口①①口 |----|
6
①口口② |①---|
③口口④ |②---|
口口口口 |③---|
口口口口 |④---|
7
口口口口 |①---|
口口口口 |②---|
①口口② |③---|
③口口④ |④---|
8
口口口口 |①---|
口口口口 |②---|
口③④口 |③---|
口①②口 |④---|
9
口口口口 |①---|
口①①口 |----|
口口口口 |----|
口口口口 |----|
10
①②③④ |①---|
口口口口 |②---|
口口口口 |③---|
口口口口 |④---|
11
口口口口 |①---|
口①①口 |----|
口②②口 |②---|
口口口口 |----|
12
口口口口 |①---|
口口口口 |②---|
口口口口 |③---|
④③②① |④---|
13
口口口口 |①---|
②口口② |----|
①口口① |②---|
口口口口 |----|
14
口口口口 |①---|
口②③口 |----|
口①①口 |②---|
口口口口 |③---|
15
②①口② |①---|
口口口口 |----|
口口口口 |②---|
口口口口 |----|
16
口口口口 |①---|
口①②口 |----|
口①②口 |②---|
口口口口 |----|
17
①①①① |①---|
口口口口 |----|
口口口口 |----|
口口口口 |----|
18
口口口口 |①---|
口口口口 |②---|
口①②口 |③---|
口③④口 |④---|
19
口口口口 |①---|
口口口口 |②---|
③口口④ |③---|
①口口② |④---|
20
口口口口 |①---|
①①口口 |----|
口口口口 |----|
口口口口 |----|
21
口口口口 |①---|
口口①① |----|
口口口口 |----|
口口口口 |----|
22
①①口口 |①---|
口口口口 |----|
口口口口 |----|
口口口口 |----|
23
口口①① |①---|
口口口口 |----|
口口口口 |----|
口口口口 |----|
24
口口口口 |①---|
①①口口 |----|
口口口口 |----|
口口口口 |----|
25
口口口口 |①---|
口口①① |----|
口口口口 |----|
口口口口 |----|
26
口口口口 |①---|
口口口口 |----|
口①口口 |②---|
口口②口 |----|
27
口口口口 |----|
口口口口 |----|
口口口口 |----|
口口口① |①---|
28
口口口口 |①---|
口口口口 |----|
①口口② |②---|
口口口口 |----|
29
口①①口 |①---|
口②②口 |----|
口口口口 |②---|
口口口口 |----|
30
口口口口 |①---|
口口口口 |----|
口①②口 |②---|
口口口口 |----|
31
①口口① |①---|
②口口② |----|
口口口口 |②---|
口口口口 |----|
32
口口口口 |①---|
口①②口 |----|
口口口口 |②---|
口口口口 |----|
33
②①①② |①---|
口口口口 |----|
口口口口 |②---|
口口口口 |----|
34
口口口口 |①---|
口①②口 |②---|
口③④口 |③---|
口口口口 |④---|
35
口口口口 |①---|
口口口口 |----|
口口口口 |②---|
口①口② |----|
36
③口口③ |①--②|
口②②口 |--③-|
口①①口 |----|
口口口口 |----|
37
①②③④ |①---|
口口口口 |②---|
口口口口 |③---|
口口口口 |④---|
38
口口口口 |①---|
口①①口 |----|
口②②口 |②---|
口口口口 |----|
39
口口口口 |①---|
口口口口 |②---|
口口口口 |③---|
④③②① |④---|
40
口口口口 |①---|
②口口② |----|
①口口① |②---|
口口口口 |----|
41
口口口口 |①---|
口②③口 |----|
口①①口 |②---|
口口口口 |③---|
42
①①②② |①---|
口口口口 |----|
口口口口 |②---|
口口口口 |----|
43
口口口口 |①---|
口①①口 |----|
口②②口 |②---|
口口口口 |----|
44
口②②口 |①---|
①②②① |----|
口口口口 |②---|
口口口口 |----|
45
①②③④ |①---|
口口口口 |②---|
口口口口 |③---|
口口口口 |④---|
46
口口口口 |①---|
口①①口 |----|
口②②口 |②---|
口口口口 |----|
47
口口口口 |①---|
口口口口 |②---|
口口口口 |③---|
④③②① |④---|
48
口口口口 |①---|
②口口② |----|
①口口① |②---|
口口口口 |----|
49
口口口口 |①---|
口②③口 |----|
口①①口 |②---|
口口口口 |③---|
50
②①口② |①---|
口口口口 |----|
口口口口 |②---|
口口口口 |----|
51
口口口口 |①---|
口①②口 |----|
口①②口 |②---|
口口口口 |----|
52
口口口口 |①---|
口口口口 |----|
口口口口 |----|
①口口① |----|
53
口口口口 |①---|
口①②口 |----|
口①②口 |②---|
口口口口 |----|
54
①①①① |①---|
口口口口 |----|
口口口口 |----|
口口口口 |----|
55
口口口口 |①---|
口①①口 |----|
口①①口 |----|
口口口口 |----|

不確定度: 0

最終更新:2014年08月01日 23:06