sister's noise
fripSide

ADVANCED

Level: 7
BPM: 144
Notes: 452

1
口口口口 |----|
口口口口 |----|
口口口口 |----|
口口口口 |----|
2
①口口② |①--②|
口⑤⑥口 |--③-|
口口口口 |-④--|
④口口③ |⑤-⑥-|
3
①口口② |①--②|
口口口口 |--③-|
口⑥⑤口 |-④--|
④口口③ |⑤-⑥-|
4
③口口④ |①--②|
口口口口 |--③-|
口⑥⑤口 |-④--|
②口口① |⑤-⑥-|
5
③口口④ |①--②|
口⑤⑥口 |--③-|
口口口口 |-④--|
②口口① |⑤-⑥-|
6
①口口② |①--②|
口⑤⑥口 |--③-|
口口口口 |-④--|
④口口③ |⑤-⑥-|
7
①⑥⑤② |①--②|
口口口口 |--③-|
口口口口 |-④--|
④口口③ |⑤-⑥-|
8
⑯⑮⑭⑬ |①②③④|
⑫⑪⑩⑨ |⑤⑥⑦⑧|
⑧⑦⑥⑤ |⑨⑩⑪⑫|
④③②① |⑬⑭⑮⑯|
9
口口口口 |①--②|
口③③口 |--③-|
②③③① |----|
口②①口 |----|
10
②②①① |①---|
口③④口 |②-③④|
口③④口
①口口②

口口口⑤
⑦口口⑥
⑥口口⑦ |--⑤-|
⑤口口口 |⑥-⑦-|
11
口①②口 |①--②|
口③口口 |--③-|
口口④口 |④---|
口②①口 |----|
12
①①②② |①---|
口③④口 |②-③④|
口③④口
②口口①

⑤口口口
⑥口口⑦
⑦口口⑥ |--⑤-|
口口口⑤ |⑥-⑦-|
13
口③①③ |①--②|
口④④⑤ |--③-|
口⑥口口 |④---|
②①②口 |--⑤⑥|
14
②口口② |①---|
③口口③ |----|
口口口口 |②---|
口口①口 |③---|
15
口口④口 |①---|
口⑤口口 |②-③-|
①③⑥① |④-⑤-|
口⑦②口 |⑥-⑦-|
16
①⑤⑤① |①-②-|
⑥口②口 |③-④-|
⑧③口口 |⑤-⑥-|
口口④⑦ |⑦-⑧-|
17
①口口① |①-②③|
口②③口 |----|
口②③口 |----|
口口口口 |----|
18
②口口② |①-②-|
⑨③④⑨ |③④--|
口⑤⑥口 |⑤⑥-⑦|
①⑦⑧① |⑧-⑨-|
19
②口口② |①-②-|
⑨③④⑨ |③④--|
口⑤⑥口 |⑤⑥-⑦|
①⑦⑧① |⑧-⑨-|
20
①口口口 |①--②|
口②口④ |--③-|
⑤口③口 |----|
口口口口 |④-⑤-|
21
口口口① |①--②|
口口②口 |--③-|
口③口口 |----|
口口口口 |----|
22
①口口口 |①--②|
口②口④ |--③-|
口口③口 |----|
⑤口口口 |④-⑤-|
23
口口口① |①--②|
口口②口 |--③-|
口③口口 |----|
口口口口 |----|
24
口口口口 |①--②|
①⑤④口 |--③-|
口②口口 |----|
口口③口 |④-⑤-|
25
口④口口 |①---|
①口⑤① |②--③|
②③③② |--④-|
口⑥口口 |⑤-⑥-|
26
口口口口 |①--②|
④②口③ |--③-|
④口口③ |④---|
口口①口 |----|
27
口口口口 |----|
口口口口 |----|
口②口口 |----|
口口①口 |①-②-|
28
②口口③ |①--②|
口口①口 |--③-|
口口口口
口口口口

口口口口
口口⑥口
口⑥口口 |④--⑤|
④口口⑤ |--⑥-|
29
③口口③ |①--②|
②①口② |--③-|
口口①口 |④---|
④口口④ |----|
30
口④口口 |①--②|
⑥口③⑤ |--③-|
⑤②口⑥ |④--⑤|
口口①口 |--⑥-|
31
③口口③ |①--②|
口①②口 |--③-|
口①②口 |④---|
④口口④ |----|
32
口①口口 |①--②|
⑥⑤②⑥ |--③-|
口③口口 |④--⑤|
口口④口 |--⑥-|
33
口②②口 |①--②|
口③④口 |--③-|
①③④① |④---|
⑤口口口 |--⑤-|
34
口口口① |①-②-|
②⑧口口 |③-④⑤|
口④⑤⑦ |--⑥-|
口⑥口③ |⑦-⑧-|
35
②②①① |①--②|
④口口③ |--③-|
④口口③ |④---|
口口口口 |----|
36
②②①① |①--②|
口③③口 |--③-|
口③③口 |----|
①①②② |----|
37
②②①① |①---|
口③④口 |②-③④|
口③④口
①口口②

口口口⑤
⑦口口⑥
⑥口口⑦ |--⑤-|
⑤口口口 |⑥-⑦-|
38
口①②口 |①--②|
口③口口 |--③-|
口口④口 |④---|
口②①口 |----|
39
①①②② |①---|
口③④口 |②-③④|
口③④口
②口口①

⑤口口口
⑥口口⑦
⑦口口⑥ |--⑤-|
口口口⑤ |⑥-⑦-|
40
口③①③ |①--②|
口④④⑤ |--③-|
口⑥口口 |④---|
②①②口 |--⑤⑥|
41
口②②口 |①---|
④③③口 |②--③|
口口口⑤ |--④-|
⑥口①口 |⑤-⑥-|
42
口②②口 |①---|
口③③口 |②--③|
口口口口
口口口①

口口口口
口口口④
⑤口口口 |--④-|
口口口⑥ |⑤-⑥-|
43
口口口口 |①---|
口口②口 |--②③|
口③口口
①口口口

⑦口口口
⑦口口⑥
⑤口口⑥ |④-⑤-|
⑤口④口 |⑥-⑦-|
44
口②①① |①--②|
口②③口 |--③④|
口④口口 |⑤---|
口口⑤口 |----|
45
②②①① |①---|
口③④口 |②-③④|
口③④口
①口口②

口口口⑤
⑦口口⑥
⑥口口⑦ |--⑤-|
⑤口口口 |⑥-⑦-|
46
口①②口 |①--②|
口③口口 |--③-|
口口④口 |④---|
口②①口 |----|
47
①①②② |①---|
口③④口 |②-③④|
口③④口
②口口①

⑤口口口
⑥口口⑦
⑦口口⑥ |--⑤-|
口口口⑤ |⑥-⑦-|
48
口③①③ |①--②|
口④④⑤ |--③-|
口⑥口口 |④---|
②①②口 |--⑤⑥|
49
②口口② |①---|
③口口③ |----|
口口口口 |②---|
口口①口 |③---|
50
口口④口 |①---|
口⑤口口 |②-③-|
①③⑥① |④-⑤-|
口⑦②口 |⑥-⑦-|
51
①⑤⑤① |①-②-|
⑥口②口 |③-④-|
⑧③口口 |⑤-⑥-|
口口④⑦ |⑦-⑧-|
52
口口口口 |①-②③|
口口②口 |----|
口③口口
口①①口

口口口口
口⑤口口
口口口口 |----|
口口④口 |④-⑤-|
53
①⑤⑤① |①-②-|
⑧口②口 |③-④-|
口③口⑦ |⑤-⑥-|
⑥口口④ |⑦-⑧-|
54
②口口③ |①-②③|
口①①口 |----|
口②③口 |----|
口口口口 |----|
55
口口口口 |①---|
口①①口 |----|
口①①口 |----|
口口口口 |----|

不確定度: 0

最終更新:2014年08月01日 23:06